[ Сегодня идет свободное скачивание без начисления Download ]


Статистика раздачи
Нет
 
   
 
Top  
 
 
Queen - Виниловая коллекция (1976 - 1995) - Год: 1976 - 1995
Жанр: Rock
Продолжительность: 07:26:45
Кодек: FLAC (image+.cue)
Битрейт: Lossless
Источник оцифровки: автором раздачи
Формат записи: 32/192
Формат раздачи: 24/192
Треклист:

Albums

[hide=1976 - A Day At the Races (6E-101) (EX)]
01 - Tie Your Mother Down
02 - You Take My Breath Away
03 - Long Away
04 - The Millionaire Waltz
05 - You And I
06 - Somebody To Love (Choir [Gospel] – Brian May, Freddie Mercury, Roger Taylor)
07 - White Man
08 - Good Old-Fashioned Lover Boy (Vocals [Additional] – Mike Stone)
09 - Drowse

1977 - News Of The World (1C 264-60 033)(NMint)

01 - We Will Rock You
02 - We Are The Champions
03 - Sheer Heart Attack
04 - All Dead, All Dead
05 - Spread Your Wings
06 - Fight From The Inside
07 - Get Down, Make Love
08 - Sleeping On The Sidewalk
09 - Who Needs You
10 - It's Late
11 - My Melancholy Blues

1978 - Jazz (6E-166)(NMint)

01 - Mustapha
02 - Fat Bottomed Girls
03 - Jealousy
04 - Bicycle Race
05 - If You Can't Beat Them
06 - Let Me Entertain You
07 - Dead On Time
08 - In Only Seven Days
09 - Dreamer's Ball
10 - Fun It
11 - Leaving Home Ain't Easy
12 - Don't Stop Me Now
13 - More Of That Jazz

1980 - The Game (1C 064-63 923)(EX)

01 - Play The Game
02 - Dragon Attack
03 - Another One Bites The Dust
04 - Need Your Loving Tonight
05 - Crazy Little thing Called Love
06 - Rock It (prime ijve)
07 - Don't Try Suicide
08 - Sail Away Sweet Sister
09 - Coming Soon
10 - Save Me

1983 - Hot Space (1A 064-64 773)(NMint)

01 - Staying Power
02 - Dancer
03 - Back Chat
04 - Body Language
05 - Action This Day
06 - Put Out The Fire
07 - Life Is Real (song for Lennon)
08 - Calling All Girls
09 - Las Palabras De Amor (The Words of Love)
10 - Cool Cat
11 - Under Pressure

1989 - The Miracle (064-79 2357 1)(EX)

01 - Party
02 - Khashoggi's Ship
03 - The Miracle
04 - I Want It All
05 - The Invisible Man
06 - Breakthru
07 - Rain Must Fall
08 - Scandal
09 - My Baby Does Me
10 - Was It All Worth It

1991 - Innuendo (Reissue 2015) (Mint)

01 - Innuendo
02 - I'm Going Slightly Mad
03 - Headlong
04 - These Are The Days Of Our Lives
05 - Don't Try So Hard
06 - Ride The Wild Wind
08 - All God's People
09 - I Can't Live With You
10 - Delilah

1995 - Made In Heaven (Reissue 2015) (Mint)

01 - It's A Beautiful Day
02 - Made In Heaven
03 - Let Me Live
04 - Mother Love
05 - My Live Has Been Saved
06 - I Was Born To Love You
07 - Heaven For Everyone
08 - Too Much Love Will Kill You
09 - You Don't Fool Me
10 - A Winter's Tale
11 - It's A Beautiful Day (Reprise)
12 - 13

Singles

7''

1979 - Another One Bites The Dust (1C 064-63 923)(Ex)

01 - Another One Bites The Dust
02 - Dragon Attack

12''

1979 - Crazy Little Thing Called Love (1C 164-6279293)(Mint)

01 - Crazy Little Thing Called Love
02 - We Will Rock You [Live Killers]

1984 - I Want To Break Free (1C K 062 2001166)(EX)

01 - I Want To Break Free (Extended Version)
02 - Machines (or Back To Humans)

1984 - Radio Ga Ga (1C K 062 1655336)(EX)

01 - Radio Ga Ga (Extended Version)
02 - Radio Ga Ga (Instrumental Version)
03 - I Go Crazy

1986 - Friends Will Be Friends (1A K060-20 1310 6)(EX)

01 - Friends Will Be Friends (Extended Version)
02 - Friends Will Be Friends (7 Version)
03 - Seven Seas Of Rhye

1989 - Scandal (12Queen 14)(EX)

01 - Scandal (Extended Version)
02 - Scandal (Album Version)
03 - My Life Has Been Saved
-

Отчеты MediaInfo

Общее
Полное имя                               : E:\Music\Queen\Queen LP Collection\Albums\1976 - A Day At the Races [6E-101]\Queen - A Day At The Races - Side 1.flac
Формат                                   : FLAC
Формат/Информация                        : Free Lossless Audio Codec
Размер файла                             : 866 Мбайт
Продолжительность                        : 21 м.
Режим общего битрейта                    : Переменный
Общий поток                              : 5528 Кбит/сек
Аудио
Формат                                   : FLAC
Формат/Информация                        : Free Lossless Audio Codec
Продолжительность                        : 21 м.
Вид битрейта                             : Переменный
Битрейт                                  : 5528 Кбит/сек
Каналы                                   : 2 канала
Расположение каналов                     : Front: L R
Частота                                  : 192 КГц
Битовая глубина                          : 24 бит
Размер потока                            : 866 Мбайт (100%)
Библиотека кодирования                   : libFLAC 1.0.25 (UTC 2007-09-17)
Общее
Полное имя                               : E:\Music\Queen\Queen LP Collection\Albums\1976 - A Day At the Races [6E-101]\Queen - A Day At The Races - Side 2.flac
Формат                                   : FLAC
Формат/Информация                        : Free Lossless Audio Codec
Размер файла                             : 900 Мбайт
Продолжительность                        : 22 м.
Режим общего битрейта                    : Переменный
Общий поток                              : 5587 Кбит/сек
Аудио
Формат                                   : FLAC
Формат/Информация                        : Free Lossless Audio Codec
Продолжительность                        : 22 м.
Вид битрейта                             : Переменный
Битрейт                                  : 5587 Кбит/сек
Каналы                                   : 2 канала
Расположение каналов                     : Front: L R
Частота                                  : 192 КГц
Битовая глубина                          : 24 бит
Размер потока                            : 900 Мбайт (100%)
Библиотека кодирования                   : libFLAC 1.0.25 (UTC 2007-09-17)
Общее
Полное имя                               : E:\Music\Queen\Queen LP Collection\Albums\1976 - A Day At the Races [6E-101]\Queen - A Day At The Races.cue
Размер файла                             : 1,24 Кбайт
Общее
Полное имя                               : E:\Music\Queen\Queen LP Collection\Albums\1977 - News Of The World [1C 264-60 033]\Queen - News Of The World - Side 1.flac
Формат                                   : FLAC
Формат/Информация                        : Free Lossless Audio Codec
Размер файла                             : 781 Мбайт
Продолжительность                        : 19 м.
Режим общего битрейта                    : Переменный
Общий поток                              : 5650 Кбит/сек
Аудио
Формат                                   : FLAC
Формат/Информация                        : Free Lossless Audio Codec
Продолжительность                        : 19 м.
Вид битрейта                             : Переменный
Битрейт                                  : 5650 Кбит/сек
Каналы                                   : 2 канала
Расположение каналов                     : Front: L R
Частота                                  : 192 КГц
Битовая глубина                          : 24 бит
Размер потока                            : 781 Мбайт (100%)
Библиотека кодирования                   : libFLAC 1.0.25 (UTC 2007-09-17)
Общее
Полное имя                               : E:\Music\Queen\Queen LP Collection\Albums\1977 - News Of The World [1C 264-60 033]\Queen - News Of The World - Side 2.flac
Формат                                   : FLAC
Формат/Информация                        : Free Lossless Audio Codec
Размер файла                             : 805 Мбайт
Продолжительность                        : 19 м.
Режим общего битрейта                    : Переменный
Общий поток                              : 5628 Кбит/сек
Аудио
Формат                                   : FLAC
Формат/Информация                        : Free Lossless Audio Codec
Продолжительность                        : 19 м.
Вид битрейта                             : Переменный
Битрейт                                  : 5628 Кбит/сек
Каналы                                   : 2 канала
Расположение каналов                     : Front: L R
Частота                                  : 192 КГц
Битовая глубина                          : 24 бит
Размер потока                            : 805 Мбайт (100%)
Библиотека кодирования                   : libFLAC 1.0.25 (UTC 2007-09-17)
Общее
Полное имя                               : E:\Music\Queen\Queen LP Collection\Albums\1977 - News Of The World [1C 264-60 033]\Queen - News Of The World.cue
Размер файла                             : 994 байт
Общее
Полное имя                               : E:\Music\Queen\Queen LP Collection\Albums\1978 - Jazz [6E-166]\Queen - Jazz - Side 1.flac
Формат                                   : FLAC
Формат/Информация                        : Free Lossless Audio Codec
Размер файла                             : 836 Мбайт
Продолжительность                        : 21 м.
Режим общего битрейта                    : Переменный
Общий поток                              : 5537 Кбит/сек
Аудио
Формат                                   : FLAC
Формат/Информация                        : Free Lossless Audio Codec
Продолжительность                        : 21 м.
Вид битрейта                             : Переменный
Битрейт                                  : 5537 Кбит/сек
Каналы                                   : 2 канала
Расположение каналов                     : Front: L R
Частота                                  : 192 КГц
Битовая глубина                          : 24 бит
Размер потока                            : 836 Мбайт (100%)
Библиотека кодирования                   : libFLAC 1.0.25 (UTC 2007-09-17)
Общее
Полное имя                               : E:\Music\Queen\Queen LP Collection\Albums\1978 - Jazz [6E-166]\Queen - Jazz - Side 2.flac
Формат                                   : FLAC
Формат/Информация                        : Free Lossless Audio Codec
Размер файла                             : 953 Мбайт
Продолжительность                        : 24 м.
Режим общего битрейта                    : Переменный
Общий поток                              : 5519 Кбит/сек
Аудио
Формат                                   : FLAC
Формат/Информация                        : Free Lossless Audio Codec
Продолжительность                        : 24 м.
Вид битрейта                             : Переменный
Битрейт                                  : 5519 Кбит/сек
Каналы                                   : 2 канала
Расположение каналов                     : Front: L R
Частота                                  : 192 КГц
Битовая глубина                          : 24 бит
Размер потока                            : 953 Мбайт (100%)
Библиотека кодирования                   : libFLAC 1.0.25 (UTC 2007-09-17)
Общее
Полное имя                               : E:\Music\Queen\Queen LP Collection\Albums\1978 - Jazz [6E-166]\Queen - Jazz.cue
Размер файла                             : 1,05 Кбайт
Общее
Полное имя                               : E:\Music\Queen\Queen LP Collection\Albums\1980 - The Game [1C 064-63 923]\Queen - The Game - Side 1.flac
Формат                                   : FLAC
Формат/Информация                        : Free Lossless Audio Codec
Размер файла                             : 357 Мбайт
Продолжительность                        : 16 м.
Режим общего битрейта                    : Переменный
Общий поток                              : 2952 Кбит/сек
Аудио
Формат                                   : FLAC
Формат/Информация                        : Free Lossless Audio Codec
Продолжительность                        : 16 м.
Вид битрейта                             : Переменный
Битрейт                                  : 2952 Кбит/сек
Каналы                                   : 2 канала
Расположение каналов                     : Front: L R
Частота                                  : 96,0 КГц
Битовая глубина                          : 24 бит
Размер потока                            : 357 Мбайт (100%)
Библиотека кодирования                   : libFLAC 1.0.25 (UTC 2007-09-17)
Общее
Полное имя                               : E:\Music\Queen\Queen LP Collection\Albums\1980 - The Game [1C 064-63 923]\Queen - The Game - Side 2.flac
Формат                                   : FLAC
Формат/Информация                        : Free Lossless Audio Codec
Размер файла                             : 394 Мбайт
Продолжительность                        : 18 м.
Режим общего битрейта                    : Переменный
Общий поток                              : 2955 Кбит/сек
Аудио
Формат                                   : FLAC
Формат/Информация                        : Free Lossless Audio Codec
Продолжительность                        : 18 м.
Вид битрейта                             : Переменный
Битрейт                                  : 2955 Кбит/сек
Каналы                                   : 2 канала
Расположение каналов                     : Front: L R
Частота                                  : 96,0 КГц
Битовая глубина                          : 24 бит
Размер потока                            : 394 Мбайт (100%)
Библиотека кодирования                   : libFLAC 1.0.25 (UTC 2007-09-17)
Общее
Полное имя                               : E:\Music\Queen\Queen LP Collection\Albums\1980 - The Game [1C 064-63 923]\Queen - The Game.cue
Размер файла                             : 924 байт
Общее
Полное имя                               : E:\Music\Queen\Queen LP Collection\Albums\1983 - Hot Space [1A 064-64 773]\Queen - Hot Space - Side 1.flac
Формат                                   : FLAC
Формат/Информация                        : Free Lossless Audio Codec
Размер файла                             : 823 Мбайт
Продолжительность                        : 20 м.
Режим общего битрейта                    : Переменный
Общий поток                              : 5534 Кбит/сек
Аудио
Формат                                   : FLAC
Формат/Информация                        : Free Lossless Audio Codec
Продолжительность                        : 20 м.
Вид битрейта                             : Переменный
Битрейт                                  : 5534 Кбит/сек
Каналы                                   : 2 канала
Расположение каналов                     : Front: L R
Частота                                  : 192 КГц
Битовая глубина                          : 24 бит
Размер потока                            : 823 Мбайт (100%)
Библиотека кодирования                   : libFLAC 1.0.25 (UTC 2007-09-17)
Общее
Полное имя                               : E:\Music\Queen\Queen LP Collection\Albums\1983 - Hot Space [1A 064-64 773]\Queen - Hot Space - Side 2.flac
Формат                                   : FLAC
Формат/Информация                        : Free Lossless Audio Codec
Размер файла                             : 910 Мбайт
Продолжительность                        : 22 м.
Режим общего битрейта                    : Переменный
Общий поток                              : 5559 Кбит/сек
Аудио
Формат                                   : FLAC
Формат/Информация                        : Free Lossless Audio Codec
Продолжительность                        : 22 м.
Вид битрейта                             : Переменный
Битрейт                                  : 5559 Кбит/сек
Каналы                                   : 2 канала
Расположение каналов                     : Front: L R
Частота                                  : 192 КГц
Битовая глубина                          : 24 бит
Размер потока                            : 910 Мбайт (100%)
Библиотека кодирования                   : libFLAC 1.0.25 (UTC 2007-09-17)
Общее
Полное имя                               : E:\Music\Queen\Queen LP Collection\Albums\1983 - Hot Space [1A 064-64 773]\Queen - Hot Space.cue
Размер файла                             : 981 байт
Общее
Полное имя                               : E:\Music\Queen\Queen LP Collection\Albums\1989 - The Miracle [064-79 2357 1]\Queen - The Miracle - Side 1.flac
Формат                                   : FLAC
Формат/Информация                        : Free Lossless Audio Codec
Размер файла                             : 763 Мбайт
Продолжительность                        : 19 м.
Режим общего битрейта                    : Переменный
Общий поток                              : 5609 Кбит/сек
Аудио
Формат                                   : FLAC
Формат/Информация                        : Free Lossless Audio Codec
Продолжительность                        : 19 м.
Вид битрейта                             : Переменный
Битрейт                                  : 5609 Кбит/сек
Каналы                                   : 2 канала
Расположение каналов                     : Front: L R
Частота                                  : 192 КГц
Битовая глубина                          : 24 бит
Размер потока                            : 763 Мбайт (100%)
Библиотека кодирования                   : libFLAC 1.0.25 (UTC 2007-09-17)
Общее
Полное имя                               : E:\Music\Queen\Queen LP Collection\Albums\1989 - The Miracle [064-79 2357 1]\Queen - The Miracle - Side 2.flac
Формат                                   : FLAC
Формат/Информация                        : Free Lossless Audio Codec
Размер файла                             : 884 Мбайт
Продолжительность                        : 22 м.
Режим общего битрейта                    : Переменный
Общий поток                              : 5496 Кбит/сек
Аудио
Формат                                   : FLAC
Формат/Информация                        : Free Lossless Audio Codec
Продолжительность                        : 22 м.
Вид битрейта                             : Переменный
Битрейт                                  : 5496 Кбит/сек
Каналы                                   : 2 канала
Расположение каналов                     : Front: L R
Частота                                  : 192 КГц
Битовая глубина                          : 24 бит
Размер потока                            : 884 Мбайт (100%)
Библиотека кодирования                   : libFLAC 1.0.25 (UTC 2007-09-17)
Общее
Полное имя                               : E:\Music\Queen\Queen LP Collection\Albums\1989 - The Miracle [064-79 2357 1]\Queen - The Miracle.cue
Размер файла                             : 868 байт
Общее
Полное имя                               : E:\Music\Queen\Queen LP Collection\Albums\1991 - Innuendo (Reissue 2015)\Queen - Innuendo - Side 1.flac
Формат                                   : FLAC
Формат/Информация                        : Free Lossless Audio Codec
Размер файла                             : 628 Мбайт
Продолжительность                        : 15 м.
Режим общего битрейта                    : Переменный
Общий поток                              : 5577 Кбит/сек
Аудио
Формат                                   : FLAC
Формат/Информация                        : Free Lossless Audio Codec
Продолжительность                        : 15 м.
Вид битрейта                             : Переменный
Битрейт                                  : 5577 Кбит/сек
Каналы                                   : 2 канала
Расположение каналов                     : Front: L R
Частота                                  : 192 КГц
Битовая глубина                          : 24 бит
Размер потока                            : 628 Мбайт (100%)
Библиотека кодирования                   : libFLAC 1.0.25 (UTC 2007-09-17)
Общее
Полное имя                               : E:\Music\Queen\Queen LP Collection\Albums\1991 - Innuendo (Reissue 2015)\Queen - Innuendo - Side 2.flac
Формат                                   : FLAC
Формат/Информация                        : Free Lossless Audio Codec
Размер файла                             : 500 Мбайт
Продолжительность                        : 12 м.
Режим общего битрейта                    : Переменный
Общий поток                              : 5467 Кбит/сек
Аудио
Формат                                   : FLAC
Формат/Информация                        : Free Lossless Audio Codec
Продолжительность                        : 12 м.
Вид битрейта                             : Переменный
Битрейт                                  : 5467 Кбит/сек
Каналы                                   : 2 канала
Расположение каналов                     : Front: L R
Частота                                  : 192 КГц
Битовая глубина                          : 24 бит
Размер потока                            : 500 Мбайт (100%)
Библиотека кодирования                   : libFLAC 1.0.25 (UTC 2007-09-17)
Общее
Полное имя                               : E:\Music\Queen\Queen LP Collection\Albums\1991 - Innuendo (Reissue 2015)\Queen - Innuendo - Side 3.flac
Формат                                   : FLAC
Формат/Информация                        : Free Lossless Audio Codec
Размер файла                             : 506 Мбайт
Продолжительность                        : 12 м.
Режим общего битрейта                    : Переменный
Общий поток                              : 5608 Кбит/сек
Аудио
Формат                                   : FLAC
Формат/Информация                        : Free Lossless Audio Codec
Продолжительность                        : 12 м.
Вид битрейта                             : Переменный
Битрейт                                  : 5608 Кбит/сек
Каналы                                   : 2 канала
Расположение каналов                     : Front: L R
Частота                                  : 192 КГц
Битовая глубина                          : 24 бит
Размер потока                            : 506 Мбайт (100%)
Библиотека кодирования                   : libFLAC 1.0.25 (UTC 2007-09-17)
Общее
Полное имя                               : E:\Music\Queen\Queen LP Collection\Albums\1991 - Innuendo (Reissue 2015)\Queen - Innuendo - Side 4.flac
Формат                                   : FLAC
Формат/Информация                        : Free Lossless Audio Codec
Размер файла                             : 526 Мбайт
Продолжительность                        : 13 м.
Режим общего битрейта                    : Переменный
Общий поток                              : 5532 Кбит/сек
Аудио
Формат                                   : FLAC
Формат/Информация                        : Free Lossless Audio Codec
Продолжительность                        : 13 м.
Вид битрейта                             : Переменный
Битрейт                                  : 5532 Кбит/сек
Каналы                                   : 2 канала
Расположение каналов                     : Front: L R
Частота                                  : 192 КГц
Битовая глубина                          : 24 бит
Размер потока                            : 526 Мбайт (100%)
Библиотека кодирования                   : libFLAC 1.0.25 (UTC 2007-09-17)
Общее
Полное имя                               : E:\Music\Queen\Queen LP Collection\Albums\1991 - Innuendo (Reissue 2015)\Queen - Innuendo.cue
Размер файла                             : 1,06 Кбайт
Общее
Полное имя                               : E:\Music\Queen\Queen LP Collection\Albums\1995 - Made In Heaven (Reissue 2015)\Queen - Made in Heaven - Side 1.flac
Формат                                   : FLAC
Формат/Информация                        : Free Lossless Audio Codec
Размер файла                             : 705 Мбайт
Продолжительность                        : 17 м.
Режим общего битрейта                    : Переменный
Общий поток                              : 5582 Кбит/сек
Аудио
Формат                                   : FLAC
Формат/Информация                        : Free Lossless Audio Codec
Продолжительность                        : 17 м.
Вид битрейта                             : Переменный
Битрейт                                  : 5582 Кбит/сек
Каналы                                   : 2 канала
Расположение каналов                     : Front: L R
Частота                                  : 192 КГц
Битовая глубина                          : 24 бит
Размер потока                            : 705 Мбайт (100%)
Библиотека кодирования                   : libFLAC 1.0.25 (UTC 2007-09-17)
Общее
Полное имя                               : E:\Music\Queen\Queen LP Collection\Albums\1995 - Made In Heaven (Reissue 2015)\Queen - Made in Heaven - Side 2.flac
Формат                                   : FLAC
Формат/Информация                        : Free Lossless Audio Codec
Размер файла                             : 555 Мбайт
Продолжительность                        : 13 м.
Режим общего битрейта                    : Переменный
Общий поток                              : 5611 Кбит/сек
Аудио
Формат                                   : FLAC
Формат/Информация                        : Free Lossless Audio Codec
Продолжительность                        : 13 м.
Вид битрейта                             : Переменный
Битрейт                                  : 5611 Кбит/сек
Каналы                                   : 2 канала
Расположение каналов                     : Front: L R
Частота                                  : 192 КГц
Битовая глубина                          : 24 бит
Размер потока                            : 555 Мбайт (100%)
Библиотека кодирования                   : libFLAC 1.0.25 (UTC 2007-09-17)
Общее
Полное имя                               : E:\Music\Queen\Queen LP Collection\Albums\1995 - Made In Heaven (Reissue 2015)\Queen - Made in Heaven - Side 3.flac
Формат                                   : FLAC
Формат/Информация                        : Free Lossless Audio Codec
Размер файла                             : 663 Мбайт
Продолжительность                        : 16 м.
Режим общего битрейта                    : Переменный
Общий поток                              : 5524 Кбит/сек
Аудио
Формат                                   : FLAC
Формат/Информация                        : Free Lossless Audio Codec
Продолжительность                        : 16 м.
Вид битрейта                             : Переменный
Битрейт                                  : 5524 Кбит/сек
Каналы                                   : 2 канала
Расположение каналов                     : Front: L R
Частота                                  : 192 КГц
Битовая глубина                          : 24 бит
Размер потока                            : 663 Мбайт (100%)
Библиотека кодирования                   : libFLAC 1.0.25 (UTC 2007-09-17)
Общее
Полное имя                               : E:\Music\Queen\Queen LP Collection\Albums\1995 - Made In Heaven (Reissue 2015)\Queen - Made In Heaven - Side 4.flac
Формат                                   : FLAC
Формат/Информация                        : Free Lossless Audio Codec
Размер файла                             : 829 Мбайт
Продолжительность                        : 22 м.
Режим общего битрейта                    : Переменный
Общий поток                              : 5087 Кбит/сек
Аудио
Формат                                   : FLAC
Формат/Информация                        : Free Lossless Audio Codec
Продолжительность                        : 22 м.
Вид битрейта                             : Переменный
Битрейт                                  : 5087 Кбит/сек
Каналы                                   : 2 канала
Расположение каналов                     : Front: L R
Частота                                  : 192 КГц
Битовая глубина                          : 24 бит
Размер потока                            : 829 Мбайт (100%)
Библиотека кодирования                   : libFLAC 1.0.25 (UTC 2007-09-17)
Общее
Полное имя                               : E:\Music\Queen\Queen LP Collection\Albums\1995 - Made In Heaven (Reissue 2015)\Queen - Made In Heaven.cue
Размер файла                             : 1,14 Кбайт
Общее
Полное имя                               : E:\Music\Queen\Queen LP Collection\Singles\1979 - Another One Bites The Dust [1C 064-63 923]\Queen - Another One Bites the Dust - Side 1.flac
Формат                                   : FLAC
Формат/Информация                        : Free Lossless Audio Codec
Размер файла                             : 140 Мбайт
Продолжительность                        : 3 м. 35 с.
Режим общего битрейта                    : Переменный
Общий поток                              : 5438 Кбит/сек
Аудио
Формат                                   : FLAC
Формат/Информация                        : Free Lossless Audio Codec
Продолжительность                        : 3 м. 35 с.
Вид битрейта                             : Переменный
Битрейт                                  : 5438 Кбит/сек
Каналы                                   : 2 канала
Расположение каналов                     : Front: L R
Частота                                  : 192 КГц
Битовая глубина                          : 24 бит
Размер потока                            : 140 Мбайт (100%)
Библиотека кодирования                   : libFLAC 1.0.25 (UTC 2007-09-17)
Общее
Полное имя                               : E:\Music\Queen\Queen LP Collection\Singles\1979 - Another One Bites The Dust [1C 064-63 923]\Queen - Another One Bites the Dust - Side 2.flac
Формат                                   : FLAC
Формат/Информация                        : Free Lossless Audio Codec
Размер файла                             : 176 Мбайт
Продолжительность                        : 4 м. 20 с.
Режим общего битрейта                    : Переменный
Общий поток                              : 5676 Кбит/сек
Аудио
Формат                                   : FLAC
Формат/Информация                        : Free Lossless Audio Codec
Продолжительность                        : 4 м. 20 с.
Вид битрейта                             : Переменный
Битрейт                                  : 5676 Кбит/сек
Каналы                                   : 2 канала
Расположение каналов                     : Front: L R
Частота                                  : 192 КГц
Битовая глубина                          : 24 бит
Размер потока                            : 176 Мбайт (100%)
Библиотека кодирования                   : libFLAC 1.0.25 (UTC 2007-09-17)
Общее
Полное имя                               : E:\Music\Queen\Queen LP Collection\Singles\1979 - Another One Bites The Dust [1C 064-63 923]\Queen - Another One Bites the Dust.cue
Размер файла                             : 361 байт
Общее
Полное имя                               : E:\Music\Queen\Queen LP Collection\Singles\1979 - Crazy Little Thing Called Love [1C 164-6279293]\Queen - Crazy Little Thing Called Love - Side 1.flac
Формат                                   : FLAC
Формат/Информация                        : Free Lossless Audio Codec
Размер файла                             : 114 Мбайт
Продолжительность                        : 2 м. 49 с.
Режим общего битрейта                    : Переменный
Общий поток                              : 5633 Кбит/сек
Аудио
Формат                                   : FLAC
Формат/Информация                        : Free Lossless Audio Codec
Продолжительность                        : 2 м. 49 с.
Вид битрейта                             : Переменный
Битрейт                                  : 5633 Кбит/сек
Каналы                                   : 2 канала
Расположение каналов                     : Front: L R
Частота                                  : 192 КГц
Битовая глубина                          : 24 бит
Размер потока                            : 114 Мбайт (100%)
Библиотека кодирования                   : libFLAC 1.0.25 (UTC 2007-09-17)
Общее
Полное имя                               : E:\Music\Queen\Queen LP Collection\Singles\1979 - Crazy Little Thing Called Love [1C 164-6279293]\Queen - Crazy Little Thing Called Love - Side 2.flac
Формат                                   : FLAC
Формат/Информация                        : Free Lossless Audio Codec
Размер файла                             : 135 Мбайт
Продолжительность                        : 3 м. 15 с.
Режим общего битрейта                    : Переменный
Общий поток                              : 5765 Кбит/сек
Аудио
Формат                                   : FLAC
Формат/Информация                        : Free Lossless Audio Codec
Продолжительность                        : 3 м. 15 с.
Вид битрейта                             : Переменный
Битрейт                                  : 5765 Кбит/сек
Каналы                                   : 2 канала
Расположение каналов                     : Front: L R
Частота                                  : 192 КГц
Битовая глубина                          : 24 бит
Размер потока                            : 135 Мбайт (100%)
Библиотека кодирования                   : libFLAC 1.0.25 (UTC 2007-09-17)
Общее
Полное имя                               : E:\Music\Queen\Queen LP Collection\Singles\1979 - Crazy Little Thing Called Love [1C 164-6279293]\Queen - Crazy Little Thing Called Love.cue
Размер файла                             : 428 байт
Общее
Полное имя                               : E:\Music\Queen\Queen LP Collection\Singles\1984 - I Want To Break Free [1C K 062 2001166]\Queen - I Want To Break Free - Side 1.flac
Формат                                   : FLAC
Формат/Информация                        : Free Lossless Audio Codec
Размер файла                             : 301 Мбайт
Продолжительность                        : 7 м. 18 с.
Режим общего битрейта                    : Переменный
Общий поток                              : 5754 Кбит/сек
Аудио
Формат                                   : FLAC
Формат/Информация                        : Free Lossless Audio Codec
Продолжительность                        : 7 м. 18 с.
Вид битрейта                             : Переменный
Битрейт                                  : 5754 Кбит/сек
Каналы                                   : 2 канала
Расположение каналов                     : Front: L R
Частота                                  : 192 КГц
Битовая глубина                          : 24 бит
Размер потока                            : 301 Мбайт (100%)
Библиотека кодирования                   : libFLAC 1.0.25 (UTC 2007-09-17)
Общее
Полное имя                               : E:\Music\Queen\Queen LP Collection\Singles\1984 - I Want To Break Free [1C K 062 2001166]\Queen - I Want To Break Free - Side 2.flac
Формат                                   : FLAC
Формат/Информация                        : Free Lossless Audio Codec
Размер файла                             : 210 Мбайт
Продолжительность                        : 5 м. 13 с.
Режим общего битрейта                    : Переменный
Общий поток                              : 5624 Кбит/сек
Аудио
Формат                                   : FLAC
Формат/Информация                        : Free Lossless Audio Codec
Продолжительность                        : 5 м. 13 с.
Вид битрейта                             : Переменный
Битрейт                                  : 5624 Кбит/сек
Каналы                                   : 2 канала
Расположение каналов                     : Front: L R
Частота                                  : 192 КГц
Битовая глубина                          : 24 бит
Размер потока                            : 210 Мбайт (100%)
Библиотека кодирования                   : libFLAC 1.0.25 (UTC 2007-09-17)
Общее
Полное имя                               : E:\Music\Queen\Queen LP Collection\Singles\1984 - I Want To Break Free [1C K 062 2001166]\Queen - I Want To Break Free.cue
Размер файла                             : 376 байт
Общее
Полное имя                               : E:\Music\Queen\Queen LP Collection\Singles\1984 - Radio Ga Ga [1C K 062 1655336]\Queen - Radio Ga Ga - Side 1.flac
Формат                                   : FLAC
Формат/Информация                        : Free Lossless Audio Codec
Размер файла                             : 285 Мбайт
Продолжительность                        : 6 м. 56 с.
Режим общего битрейта                    : Переменный
Общий поток                              : 5742 Кбит/сек
Аудио
Формат                                   : FLAC
Формат/Информация                        : Free Lossless Audio Codec
Продолжительность                        : 6 м. 56 с.
Вид битрейта                             : Переменный
Битрейт                                  : 5742 Кбит/сек
Каналы                                   : 2 канала
Расположение каналов                     : Front: L R
Частота                                  : 192 КГц
Битовая глубина                          : 24 бит
Размер потока                            : 285 Мбайт (100%)
Библиотека кодирования                   : libFLAC 1.0.25 (UTC 2007-09-17)
Общее
Полное имя                               : E:\Music\Queen\Queen LP Collection\Singles\1984 - Radio Ga Ga [1C K 062 1655336]\Queen - Radio Ga Ga - Side 2.flac
Формат                                   : FLAC
Формат/Информация                        : Free Lossless Audio Codec
Размер файла                             : 394 Мбайт
Продолжительность                        : 9 м. 44 с.
Режим общего битрейта                    : Переменный
Общий поток                              : 5660 Кбит/сек
Аудио
Формат                                   : FLAC
Формат/Информация                        : Free Lossless Audio Codec
Продолжительность                        : 9 м. 44 с.
Вид битрейта                             : Переменный
Битрейт                                  : 5660 Кбит/сек
Каналы                                   : 2 канала
Расположение каналов                     : Front: L R
Частота                                  : 192 КГц
Битовая глубина                          : 24 бит
Размер потока                            : 394 Мбайт (100%)
Библиотека кодирования                   : libFLAC 1.0.25 (UTC 2007-09-17)
Общее
Полное имя                               : E:\Music\Queen\Queen LP Collection\Singles\1984 - Radio Ga Ga [1C K 062 1655336]\Queen - Radio Ga Ga.cue
Размер файла                             : 411 байт
Общее
Полное имя                               : E:\Music\Queen\Queen LP Collection\Singles\1986 - Friends Will Be Friends [1A K060-20 1310 6]\Queen - Friends Will Be Friends - Side 1.flac
Формат                                   : FLAC
Формат/Информация                        : Free Lossless Audio Codec
Размер файла                             : 262 Мбайт
Продолжительность                        : 6 м. 26 с.
Режим общего битрейта                    : Переменный
Общий поток                              : 5686 Кбит/сек
Аудио
Формат                                   : FLAC
Формат/Информация                        : Free Lossless Audio Codec
Продолжительность                        : 6 м. 26 с.
Вид битрейта                             : Переменный
Битрейт                                  : 5686 Кбит/сек
Каналы                                   : 2 канала
Расположение каналов                     : Front: L R
Частота                                  : 192 КГц
Битовая глубина                          : 24 бит
Размер потока                            : 262 Мбайт (100%)
Библиотека кодирования                   : libFLAC 1.0.25 (UTC 2007-09-17)
Общее
Полное имя                               : E:\Music\Queen\Queen LP Collection\Singles\1986 - Friends Will Be Friends [1A K060-20 1310 6]\Queen - Friends Will Be Friends - Side 2.flac
Формат                                   : FLAC
Формат/Информация                        : Free Lossless Audio Codec
Размер файла                             : 290 Мбайт
Продолжительность                        : 7 м. 8 с.
Режим общего битрейта                    : Переменный
Общий поток                              : 5667 Кбит/сек
Аудио
Формат                                   : FLAC
Формат/Информация                        : Free Lossless Audio Codec
Продолжительность                        : 7 м. 8 с.
Вид битрейта                             : Переменный
Битрейт                                  : 5667 Кбит/сек
Каналы                                   : 2 канала
Расположение каналов                     : Front: L R
Частота                                  : 192 КГц
Битовая глубина                          : 24 бит
Размер потока                            : 290 Мбайт (100%)
Библиотека кодирования                   : libFLAC 1.0.25 (UTC 2007-09-17)
Общее
Полное имя                               : E:\Music\Queen\Queen LP Collection\Singles\1986 - Friends Will Be Friends [1A K060-20 1310 6]\Queen - Friends Will Be Friends.cue
Размер файла                             : 499 байт
Общее
Полное имя                               : E:\Music\Queen\Queen LP Collection\Singles\1989 - Scandal  [12Queen 14]\Queen - Scandal - Side 1.flac
Формат                                   : FLAC
Формат/Информация                        : Free Lossless Audio Codec
Размер файла                             : 268 Мбайт
Продолжительность                        : 6 м. 39 с.
Режим общего битрейта                    : Переменный
Общий поток                              : 5634 Кбит/сек
Аудио
Формат                                   : FLAC
Формат/Информация                        : Free Lossless Audio Codec
Продолжительность                        : 6 м. 39 с.
Вид битрейта                             : Переменный
Битрейт                                  : 5634 Кбит/сек
Каналы                                   : 2 канала
Расположение каналов                     : Front: L R
Частота                                  : 192 КГц
Битовая глубина                          : 24 бит
Размер потока                            : 268 Мбайт (100%)
Библиотека кодирования                   : libFLAC 1.0.25 (UTC 2007-09-17)
Общее
Полное имя                               : E:\Music\Queen\Queen LP Collection\Singles\1989 - Scandal  [12Queen 14]\Queen - Scandal - Side 2.flac
Формат                                   : FLAC
Формат/Информация                        : Free Lossless Audio Codec
Размер файла                             : 319 Мбайт
Продолжительность                        : 8 м. 3 с.
Режим общего битрейта                    : Переменный
Общий поток                              : 5530 Кбит/сек
Аудио
Формат                                   : FLAC
Формат/Информация                        : Free Lossless Audio Codec
Продолжительность                        : 8 м. 3 с.
Вид битрейта                             : Переменный
Битрейт                                  : 5530 Кбит/сек
Каналы                                   : 2 канала
Расположение каналов                     : Front: L R
Частота                                  : 192 КГц
Битовая глубина                          : 24 бит
Размер потока                            : 319 Мбайт (100%)
Библиотека кодирования                   : libFLAC 1.0.25 (UTC 2007-09-17)
Общее
Полное имя                               : E:\Music\Queen\Queen LP Collection\Singles\1989 - Scandal  [12Queen 14]\Queen - Scandal.cue
Размер файла                             : 396 байт

[Цитировать]

Ну, уж источник оцифровки можно-то поправить, уважаемый.

[Цитировать]



Показать сообщения:    

Текущее время: 26-Апр 12:06

Часовой пояс: UTC + 6


Вы не можете начинать темы
Вы не можете отвечать на сообщения
Вы не можете редактировать свои сообщения
Вы не можете удалять свои сообщения
Вы не можете голосовать в опросах
Вы не можете прикреплять файлы к сообщениям
Вы не можете скачивать файлы

!ВНИМАНИЕ!
Сайт не предоставляет электронные версии произведений, а занимается лишь коллекционированием и каталогизацией ссылок, присылаемых и публикуемых на форуме нашими читателями. Если вы являетесь правообладателем какого-либо представленного материала и не желаете, чтобы ссылка на него находилась в нашем каталоге, свяжитесь с нами, и мы незамедлительно удалим ее. Файлы для обмена на трекере предоставлены пользователями сайта, и администрация не несет ответственности за их содержание. Просьба не заливать файлы, защищенные авторскими правами, а также файлы нелегального содержания!