[ Сегодня идет свободное скачивание без начисления Download ]


Статистика раздачи
Нет
 
   
 
Top  
 
 
Снежная битва / La guerre des tuques 3D Информация о фильме
Название: Снежная битва
Оригинальное название: La guerre des tuques 3D
Год выпуска: 2015
Страна: Канада
Жанр: мультфильм
Перевод: Дубляж - [Чистый звук] официальный
Продолжительность: 01:21:59
Режиссер: Жан-Франсуа Пуле , Франсуа Бриссон
В ролях: Анджела Галуппо (Luke, озвучка), Марилуп Вульф (Sophie), Люсинда Дэвис (Sophie, озвучка), Николас Савард-Хербер (Luc), Софи Кадьо (Lucie), Энн Касабонн (Maranda), Хелен Буржуа Леклерк (François Les Lunettes), Росс Линч (Piers), Катрин Трюдо (Jacques), Жильдор Руа (Chabot), Андре Сов (Henri et Georges Leroux), Себастьян Рединг (Pierre)
Описание:
Чтобы развлечься во время зимних каникул, детвора из маленькой деревни решает устроить грандиозное снежное побоище между двумя командами.
Рейтинг:

MPAA: PG - Рекомендуется присутствие родителей
Качество: WEBRip-AVC
Формат: MKV
Видео: AVC, 1024x426 (2.40:1), 2098 kbps, 24 fps, 0,200 bpp
Аудио: AC3 / 2.0 / 48 kHz / 448 kbps / 16 bit
Семпл

ОтчетМедиаИнфо

General
Unique ID : 221288167830866724731326425307184773912 (0xA67A8D063C7187E19337C9E1897E3B18)
Complete name : D:downloadSnegovie.Voiny.2015.WEBRip-AVC.by.White Smoke.R.G.Resident.mkv
Format : Matroska
Format version : Version 2
File size : 1.46 GiB
Duration : 1h 21mn
Overall bit rate : 2 547 Kbps
Encoded date : UTC 2016-01-02 22:43:52
Writing application : mkvmerge v7.8.0 ('River Man') 32bit built on Apr 3 2015 12:11:22
Writing library : libebml v1.3.1 + libmatroska v1.4.2
Video
ID : 1
Format : AVC
Format/Info : Advanced Video Codec
Format profile : High@L4.1
Format settings, CABAC : Yes
Format settings, ReFrames : 12 frames
Codec ID : V_MPEG4/ISO/AVC
Duration : 1h 21mn
Bit rate : 2 098 Kbps
Width : 1 024 pixels
Height : 426 pixels
Display aspect ratio : 2.40:1
Frame rate : 24.000 fps
Color space : YUV
Chroma subsampling : 4:2:0
Bit depth : 8 bits
Scan type : Progressive
Bits/(Pixel*Frame) : 0.200
Stream size : 1.17 GiB (80%)
Writing library : x264 core 146 r2538 121396c
Encoding settings : cabac=1 / ref=12 / deblock=1:-2:-2 / analyse=0x3:0x113 / me=umh / subme=9 / psy=1 / psy_rd=1.00:0.00 / mixed_ref=1 / me_range=32 / chroma_me=1 / trellis=2 / 8x8dct=1 / cqm=0 / deadzone=21,11 / fast_pskip=0 / chroma_qp_offset=-2 / threads=6 / lookahead_threads=1 / sliced_threads=0 / nr=0 / decimate=0 / interlaced=0 / bluray_compat=0 / constrained_intra=0 / bframes=10 / b_pyramid=2 / b_adapt=2 / b_bias=0 / direct=3 / weightb=1 / open_gop=0 / weightp=2 / keyint=240 / keyint_min=23 / scenecut=40 / intra_refresh=0 / rc_lookahead=60 / rc=2pass / mbtree=0 / bitrate=2098 / ratetol=1.0 / qcomp=0.60 / qpmin=0 / qpmax=69 / qpstep=4 / cplxblur=20.0 / qblur=0.5 / vbv_maxrate=14000 / vbv_bufsize=14000 / nal_hrd=none / filler=0 / ip_ratio=1.40 / pb_ratio=1.30 / aq=1:0.80
Default : Yes
Forced : No
Audio
ID : 2
Format : AC-3
Format/Info : Audio Coding 3
Mode extension : CM (complete main)
Codec ID : A_AC3
Duration : 1h 21mn
Bit rate mode : Constant
Bit rate : 448 Kbps
Channel(s) : 2 channels
Channel positions : Front: L R
Sampling rate : 48.0 KHz
Bit depth : 16 bits
Compression mode : Lossy
Stream size : 263 MiB (18%)
Default : Yes
Forced : No

Скриншоты

[Цитировать]



Показать сообщения:    

Текущее время: 07-Дек 19:29

Часовой пояс: UTC + 3


Вы не можете начинать темы
Вы не можете отвечать на сообщения
Вы не можете редактировать свои сообщения
Вы не можете удалять свои сообщения
Вы не можете голосовать в опросах
Вы не можете прикреплять файлы к сообщениям
Вы не можете скачивать файлы

!ВНИМАНИЕ!
Сайт не предоставляет электронные версии произведений, а занимается лишь коллекционированием и каталогизацией ссылок, присылаемых и публикуемых на форуме нашими читателями. Если вы являетесь правообладателем какого-либо представленного материала и не желаете, чтобы ссылка на него находилась в нашем каталоге, свяжитесь с нами, и мы незамедлительно удалим ее. Файлы для обмена на трекере предоставлены пользователями сайта, и администрация не несет ответственности за их содержание. Просьба не заливать файлы, защищенные авторскими правами, а также файлы нелегального содержания!