[ Сегодня идет свободное скачивание без начисления Download ]


Статистика раздачи
Нет
 
   
 
Top  
 
 
Арлетти. Преступная страсть / Arletty, une passion coupable (2015) DVDRip - Производство: Франция: Angoa, Centre National de la Cinématographie (CNC), Flach Film Production
Жанр: Драма, Военный, Биография, История
Режиссер: Арно Селиньяк
Продюсер: Сильветт Фридман, Жан-Франсуа Лепети, Mélanie Tahtane
Актеры: Летиция Каста, Мари-Жозе Кроз, Кен Дукен, Жозефин Дрэй, Марк Китти, Наталия Дончева, Марк Арно, Доминик Бастьен, Ксавьер Лафит, Франк Виктор
Описание:
Биографический фильм о драматической истории любви великой французской актрисы Арлетти и командира парижского отделения Люфтваффе Ханса-Юргена Зоэринга в годы оккупации Франции и режима Виши.
Во время съемок картины Марселя Карне "Дети райка", самая известная и любимая французским народом актриса Арлетти, эмансипатка и нонконформистка, знакомится с Хансом - молодым офицером военно-воздушных сил Третьего Рейха. Известие об этих романтических отношениях облетает весь Париж и вызывает неоднозначную реакцию как в кругах новой пронацистской власти, так и в рядах движения Сопротивления, активной участницей которого является возлюбленная Арлетти - графиня Антуанетта Жерар Д'Аркур.
Портрет неспокойной и сложной эпохи через призму жизни женщины, иконы своего поколения, жестоко заплатившей своей судьбой и карьерой за любовь, которую пронесла через всю жизнь...
Дата мировой премьеры: 4 февраля 2015
Продолжительность: 01:32:54
Качество видео: DVDRip
Перевод: Отсутствует
Язык субтитров: Русский (Клеопатра VII)
Вид субтитров: Вшитые отключаемые
Видео: mp43 , 720x394, ~1469 kbps
Аудио: MP3, 2 ch, 128 kbps, CBR (Оригинал)
Семпл: Скачать

Mediainfo:

Формат : AVI
Формат/Информация : Audio Video Interleave
Профиль формата : OpenDML
Размер файла : 1,05 Гбайт
Продолжительность : 1 ч. 32 м.
Общий поток : 1614 Кбит/сек
Видео
Идентификатор : 0
Формат : mp43
Идентификатор кодека : mp43
Продолжительность : 1 ч. 32 м.
Битрейт : 1469 Кбит/сек
Ширина : 720 пикселей
Высота : 394 пикселя
Соотношение сторон : 1,85:1
Частота кадров : 25,000 кадров/сек
Бит/(Пиксели*Кадры) : 0.207
Размер потока : 976 Мбайт (91%)
Аудио
Идентификатор : 1
Формат : MPEG Audio
Версия формата : Version 1
Профиль формата : Layer 3
Режим : Joint stereo
Расширение режима : MS Stereo
Идентификатор кодека : 55
Идентификатор кодека/Подсказка : MP3
Продолжительность : 1 ч. 32 м.
Вид битрейта : Постоянный
Битрейт : 128 Кбит/сек
Каналы : 2 канала
Частота : 48,0 КГц
Метод сжатия : С потерями
Размер потока : 85,1 Мбайт (8%)
Выравнивание : Соединение по промежуткам
Продолжительность промежутка : 24 мс. (0,60 видеокадр)
Библиотека кодирования : LAME3.98.2
Скриншоты:

[Цитировать]

Топик был перенесен из форума Новинки кинопроката в форум Драма
Henkok



Показать сообщения:    

Текущее время: 07-Дек 23:22

Часовой пояс: UTC + 3


Вы не можете начинать темы
Вы не можете отвечать на сообщения
Вы не можете редактировать свои сообщения
Вы не можете удалять свои сообщения
Вы не можете голосовать в опросах
Вы не можете прикреплять файлы к сообщениям
Вы не можете скачивать файлы

!ВНИМАНИЕ!
Сайт не предоставляет электронные версии произведений, а занимается лишь коллекционированием и каталогизацией ссылок, присылаемых и публикуемых на форуме нашими читателями. Если вы являетесь правообладателем какого-либо представленного материала и не желаете, чтобы ссылка на него находилась в нашем каталоге, свяжитесь с нами, и мы незамедлительно удалим ее. Файлы для обмена на трекере предоставлены пользователями сайта, и администрация не несет ответственности за их содержание. Просьба не заливать файлы, защищенные авторскими правами, а также файлы нелегального содержания!