[ Сегодня идет свободное скачивание без начисления Download ]


Статистика раздачи
Нет
 
   
 
Top  
 
 
Как заработать 20 миллионов баксов / The First $20 Million Is Always the Hardest (2002) Информация о фильме
Название: Как заработать 20 миллионов баксов
Оригинальное название: The First $20 Million Is Always the Hardest
Год выхода: 2002
Жанр: Комедия
Режиссер: Мик Джексон
В ролях: Адам Гарсиа, Розарио Доусон, Джейк Бьюзи, Энрико Колантони, Итэн Сапли, Анжул Нигам, Грегори Джбара, Дэн Батлер, Линда Харт, Шива Роуз, Чандра Уэст, Роберт Патрик Бенедикт, Хезер Дубров, Стоуни Вэстмолэнд, Джон Ротмен, Энди Берман, Регги Ли, Брент Хинкли, Эми Ван Хорн, Дагни Керр, Джерри Халева, Виктория Гарсия-Келлехер, Джонатан Клейн
О фильме:
В сфере высоких технологий переполох — создан уникальный компьютер. Монитора нет, клавиатуры нет. Выглядит очень странно, но стоит совсем недорого и, главное, работает. Транснациональные корпорации в панике. А виноват во всём Энди, который бросил свою удачную карьеру и вместе с командой — тремя своеобразными и психически неуравновешенными программистами создаёт это чудо техники. Но ожидаемая куча баксов уползает буквально из-под носа — конкуренты не дремлют и пытаются любым способом заполучить этот лакомый кусочек.
Страна: США
Студия: 20th Century Fox Film Corporation, Ocean Pictures
Продолжительность: 01:40:15
Перевод: Профессиональный многоголосый
Файл
Кодек: AVC
Качество: HDTVRip 720p
Видео: 1280x720 (16:9), 25.000 fps, 2 600 Kbps (0.113 bit/pixel)
Звук: AC-3, 48.0 KHz, 2 ch, 192 Kbps, CBR

MediaInfo

Общее
Уникальный идентификатор : 179548543338902808562060704810391525125 (0x8713CAA6DEFD7648867054C58C135705)
Полное имя : D:фильмыKak zarabotatj 20 limonov HDTVRip AVC.mkv
Формат : Matroska
Версия формата : Version 4 / Version 2
Размер файла : 1,96 Гбайт
Продолжительность : 1 ч. 40 м.
Общий поток : 2794 Кбит/сек
Дата кодирования : UTC 2016-01-04 06:51:59
Программа кодирования : mkvmerge v7.7.0 ('Six Voices') 32bit built on Feb 28 2015 23:23:00
Библиотека кодирования : libebml v1.3.1 + libmatroska v1.4.2
Attachements : cover.jpg
TITLE : The First $20 Million Is Always the Hardest
DIRECTOR : Mick Jackson
RELEASE : Koenig
DURATION : 01:40:15.648000000
NUMBER_OF_FRAMES : 187989
NUMBER_OF_BYTES : 144375552
_STATISTICS_WRITING_APP : mkvmerge v7.7.0 ('Six Voices') 32bit built on Feb 28 2015 23:23:00
_STATISTICS_WRITING_DATE_UTC : 2016-01-04 06:51:59
_STATISTICS_TAGS : BPS DURATION NUMBER_OF_FRAMES NUMBER_OF_BYTES
Видео
Идентификатор : 1
Формат : AVC
Формат/Информация : Advanced Video Codec
Профиль формата : High@L4.1
Параметр CABAC формата : Да
Параметр ReFrames формата : 7 кадров
Идентификатор кодека : V_MPEG4/ISO/AVC
Продолжительность : 1 ч. 40 м.
Битрейт : 2600 Кбит/сек
Ширина : 1280 пикселей
Высота : 720 пикселей
Соотношение сторон : 16:9
Режим частоты кадров : Постоянный
Частота кадров : 25,000 кадров/сек
Цветовое пространство : YUV
Субдискретизация насыщенности : 4:2:0
Битовая глубина : 8 бит
Тип развёртки : Прогрессивная
Бит/(Пиксели*Кадры) : 0.113
Размер потока : 1,78 Гбайт (91%)
Библиотека кодирования : x264 core 146 r2538 121396c
Настройки программы : cabac=1 / ref=7 / deblock=1:-3:-3 / analyse=0x3:0x133 / me=umh / subme=9 / psy=1 / psy_rd=1.00:0.00 / mixed_ref=1 / me_range=32 / chroma_me=1 / trellis=2 / 8x8dct=1 / cqm=0 / deadzone=21,11 / fast_pskip=1 / chroma_qp_offset=-2 / threads=3 / lookahead_threads=1 / sliced_threads=0 / nr=0 / decimate=1 / interlaced=0 / bluray_compat=0 / constrained_intra=0 / bframes=6 / b_pyramid=2 / b_adapt=2 / b_bias=0 / direct=3 / weightb=1 / open_gop=0 / weightp=2 / keyint=250 / keyint_min=25 / scenecut=40 / intra_refresh=0 / rc_lookahead=40 / rc=2pass / mbtree=1 / bitrate=2600 / ratetol=1.0 / qcomp=0.60 / qpmin=10 / qpmax=51 / qpstep=4 / cplxblur=20.0 / qblur=0.5 / vbv_maxrate=50000 / vbv_bufsize=62500 / nal_hrd=none / filler=0 / ip_ratio=1.40 / aq=1:1.00
Default : Да
Forced : Нет
Аудио
Идентификатор : 2
Формат : AC-3
Формат/Информация : Audio Coding 3
Расширение режима : CM (complete main)
Параметр Endianness формата : Big
Идентификатор кодека : A_AC3
Продолжительность : 1 ч. 40 м.
Вид битрейта : Постоянный
Битрейт : 192 Кбит/сек
Каналы : 2 канала
Расположение каналов : Front: L R
Частота : 48,0 КГц
Битовая глубина : 16 бит
Метод сжатия : С потерями
Размер потока : 138 Мбайт (7%)
Язык : Russian
Default : Да
Forced : Нет

Скриншоты

[Цитировать]



Показать сообщения:    

Текущее время: 09-Дек 06:46

Часовой пояс: UTC + 3


Вы не можете начинать темы
Вы не можете отвечать на сообщения
Вы не можете редактировать свои сообщения
Вы не можете удалять свои сообщения
Вы не можете голосовать в опросах
Вы не можете прикреплять файлы к сообщениям
Вы не можете скачивать файлы

!ВНИМАНИЕ!
Сайт не предоставляет электронные версии произведений, а занимается лишь коллекционированием и каталогизацией ссылок, присылаемых и публикуемых на форуме нашими читателями. Если вы являетесь правообладателем какого-либо представленного материала и не желаете, чтобы ссылка на него находилась в нашем каталоге, свяжитесь с нами, и мы незамедлительно удалим ее. Файлы для обмена на трекере предоставлены пользователями сайта, и администрация не несет ответственности за их содержание. Просьба не заливать файлы, защищенные авторскими правами, а также файлы нелегального содержания!