[ Сегодня идет свободное скачивание без начисления Download ]


Статистика раздачи
Нет
 
   
 
Top  
 
 
Универ. Новая общага (2015)- Производство: Россия / "Комеди Клаб Продакшн", Телеканал ТНТ
Жанр: комедия
Режиссер: Константин Смирнов, Максим Зыков
Актеры: Арарат Кещян, Станислав Ярушин, Анна Кузина, Настасья Самбурская, Анна Хилькевич, Владимир Фекленко, Елена Валюшкина, Андрей Лебедев, Сергей Пиоро, Роман Куперман, Дмитрий Калистратов, Алексей Шаранин, Дарья Щёголева, Наталья Рудова, Иван Руденко, Анатолий Носов, Дмитрий Кузин и др.
Описание:
Антон и Кристина переезжают в своё собственное любовное гнёздышко. Вот только оказывается, что свить его не так-то просто, даже если все расходы берёт на себя папа-олигарх Лев Андреевич. Майкл, как ни странно, продолжает встречаться с Варей. Всё бы ничего, но теперь, когда Зуев знает об их отношениях, Майклу приходится общаться с начальником не только по рабочим вопросам, но и по домашним. Как бы ни старались Маша с Валей жить спокойной студенческой жизнью, радуясь своему странному союзу, — ничего у них не выходит. Маша постоянно переживает за любимого и всячески пытается ему помочь. Яна Семакина вместе с Иванычем все сбережения будут вкладывать в свою «ласточку». Прекрасное «ведёрко на колёсиках» работает по схеме «5-1»: пять часов чинишь, час катаешься. Что касается отношений, то пара становится всё более цельной — с общим видением жизни и увлечениями. Об этом и о многом другом вы узнаете в новом сезоне...
Продолжительность: ~ 00:25:00 серия
Качество видео: WEB-DLRip
Видео: AVC/H.264, 1024x576 (16:9), ~2400 Kbps
Аудио: AC3, 2 ch, 192 Kbps

MediaInfo:

Общее
Уникальный идентификатор                 : 251627634063843407276429160724024603511 (0xBD4DB832FAC71504B075747BC6393377)
Полное имя                               : F:\DOWNLOADS\Универ. Новая общага (10 сезон) 2015 WEB-DLRip [H.264]\Универ. Новая общага 10 - 01 серия.mkv
Формат                                   : Matroska
Версия формата                           : Version 2
Размер файла                             : 438 Мбайт
Продолжительность                        : 23 м.
Общий поток                              : 2594 Кбит/сек
Дата кодирования                         : UTC 2015-11-23 18:44:10
Программа кодирования                    : mkvmerge v7.8.0 ('River Man') 32bit built on Apr  3 2015 12:11:22
Библиотека кодирования                   : libebml v1.3.1 + libmatroska v1.4.2
Видео
Идентификатор                            : 1
Формат                                   : AVC
Формат/Информация                        : Advanced Video Codec
Профиль формата                          : High@L4.1
Параметр CABAC формата                   : Да
Параметр ReFrames формата                : 5 кадров
Идентификатор кодека                     : V_MPEG4/ISO/AVC
Продолжительность                        : 23 м.
Битрейт                                  : 2400 Кбит/сек
Ширина                                   : 1024 пикселя
Высота                                   : 576 пикселей
Соотношение сторон                       : 16:9
Режим частоты кадров                     : Постоянный
Частота кадров                           : 25,000 кадров/сек
Цветовое пространство                    : YUV
Субдискретизация насыщенности            : 4:2:0
Битовая глубина                          : 8 бит
Тип развёртки                            : Прогрессивная
Бит/(Пиксели*Кадры)                      : 0.163
Размер потока                            : 397 Мбайт (91%)
Библиотека кодирования                   : x264 core 146 r2538 121396c
Настройки программы                      : cabac=1 / ref=5 / deblock=1:-1:-1 / analyse=0x3:0x133 / me=umh / subme=7 / psy=1 / psy_rd=1.00:0.00 / mixed_ref=1 / me_range=16 / chroma_me=1 / trellis=2 / 8x8dct=1 / cqm=0 / deadzone=21,11 / fast_pskip=0 / chroma_qp_offset=-2 / threads=6 / lookahead_threads=1 / sliced_threads=0 / nr=0 / decimate=1 / interlaced=0 / bluray_compat=0 / constrained_intra=0 / bframes=3 / b_pyramid=2 / b_adapt=2 / b_bias=0 / direct=3 / weightb=1 / open_gop=0 / weightp=2 / keyint=250 / keyint_min=25 / scenecut=40 / intra_refresh=0 / rc_lookahead=50 / rc=2pass / mbtree=1 / bitrate=2400 / ratetol=1.0 / qcomp=0.60 / qpmin=0 / qpmax=69 / qpstep=4 / cplxblur=20.0 / qblur=0.5 / ip_ratio=1.40 / aq=1:1.00
Default                                  : Да
Forced                                   : Нет
Аудио
Идентификатор                            : 2
Формат                                   : AC-3
Формат/Информация                        : Audio Coding 3
Расширение режима                        : CM (complete main)
Параметр Endianness формата              : Big
Идентификатор кодека                     : A_AC3
Продолжительность                        : 23 м.
Вид битрейта                             : Постоянный
Битрейт                                  : 192 Кбит/сек
Каналы                                   : 2 канала
Расположение каналов                     : Front: L R
Частота                                  : 48,0 КГц
Метод сжатия                             : С потерями
Размер потока                            : 32,4 Мбайт (7%)
Default                                  : Да
Forced                                   : Нет
Скриншоты:

[Цитировать]



Показать сообщения:    

Текущее время: 10-Дек 21:24

Часовой пояс: UTC + 3


Вы не можете начинать темы
Вы не можете отвечать на сообщения
Вы не можете редактировать свои сообщения
Вы не можете удалять свои сообщения
Вы не можете голосовать в опросах
Вы не можете прикреплять файлы к сообщениям
Вы не можете скачивать файлы

!ВНИМАНИЕ!
Сайт не предоставляет электронные версии произведений, а занимается лишь коллекционированием и каталогизацией ссылок, присылаемых и публикуемых на форуме нашими читателями. Если вы являетесь правообладателем какого-либо представленного материала и не желаете, чтобы ссылка на него находилась в нашем каталоге, свяжитесь с нами, и мы незамедлительно удалим ее. Файлы для обмена на трекере предоставлены пользователями сайта, и администрация не несет ответственности за их содержание. Просьба не заливать файлы, защищенные авторскими правами, а также файлы нелегального содержания!