[ Сегодня идет свободное скачивание без начисления Download ]


Статистика раздачи
Нет
 
   
 
Top  
 
 
Про Любовь (2015) WEB-DL - Производство: Россия, Кинокомпания «Магнум»
Жанр: Комедия
Режиссер: Анна Меликян
Продюсер: Анна Меликян, Валерия Козловская
Актеры: Рената Литвинова, Михаил Ефремов, Мария Шалаева, Василий Ракша, Юлия Снигирь, Владимир Машков, Алексей Филимонов, Евгений Цыганов, Александра Бортич, Мария Данилюк
Описание:
Что такое любовь? На этот вопрос пытаются ответить герои фильма. Вереница самых разных персонажей и историй переплетаются в этом фильме. Маленькие истории о самом разном и все о любви: молодая пара, предпочитающая жить в образах японских аниме-героев; секретарша, получившая непристойное предложение от своего босса; японка, приехавшая в Москву в поисках русского мужчины; художник-граффити в поисках красоты; бывшая жена, нанятая своим мужем для необычного задания и многое другое…
Возраст: 16+
Дата мировой премьеры: 10 декабря 2015
Дата премьеры в России: 10 декабря 2015, «A Company», «Двадцатый Век Фокс СНГ», «Нон-Стоп Продакшн»
Продолжительность: 01:55:15
Качество видео: WEB-DL
Перевод: Не требуется (Русский) iTunes
Видео: AVC/H.264, 1280x536, ~3987 kbps
Аудио: AC3, 6 ch, 384 kbps, CBR
Семпл: Скачать

Mediainfo:

Формат : Matroska
Версия формата : Version 2
Размер файла : 3,59 Гбайт
Продолжительность : 1 ч. 55 м.
Общий поток : 4460 Кбит/сек
Дата кодирования : UTC 2016-01-04 20:16:10
Программа кодирования : mkvmerge v8.3.0 ('Over the Horizon') 64bit
Библиотека кодирования : libebml v1.3.1 + libmatroska v1.4.2
Видео
Идентификатор : 1
Формат : AVC
Формат/Информация : Advanced Video Codec
Профиль формата : Main@L3.1
Параметр CABAC формата : Нет
Параметр ReFrames формата : 2 кадра
Идентификатор кодека : V_MPEG4/ISO/AVC
Продолжительность : 1 ч. 55 м.
Битрейт : 3987 Кбит/сек
Ширина : 1280 пикселей
Высота : 536 пикселей
Соотношение сторон : 2,40:1
Режим частоты кадров : Постоянный
Частота кадров : 24,000 кадра/сек
Цветовое пространство : YUV
Субдискретизация насыщенности : 4:2:0
Битовая глубина : 8 бит
Тип развёртки : Прогрессивная
Бит/(Пиксели*Кадры) : 0.242
Размер потока : 3,21 Гбайт (89%)
Язык : English
Default : Да
Forced : Нет
Цветовой диапазон : Limited
Основные цвета : BT.709
Характеристики трансфера : BT.709
Коэффициенты матрицы : BT.709
Аудио
Идентификатор : 2
Формат : AC-3
Формат/Информация : Audio Coding 3
Расширение режима : CM (complete main)
Параметр Endianness формата : Big
Идентификатор кодека : A_AC3
Продолжительность : 1 ч. 55 м.
Вид битрейта : Постоянный
Битрейт : 384 Кбит/сек
Каналы : 6 каналов
Расположение каналов : Front: L C R, Side: L R, LFE
Частота : 48,0 КГц
Метод сжатия : С потерями
Размер потока : 317 Мбайт (9%)
Язык : Russian
Default : Да
Forced : Нет
Меню
00:00:00.000 : en:Глава 1
00:05:38.000 : en:Глава 2
00:11:10.000 : en:Глава 3
00:16:51.000 : en:Глава 4
00:23:34.000 : en:Глава 5
00:29:21.000 : en:Глава 6
00:36:09.000 : en:Глава 7
00:41:25.000 : en:Глава 8
00:47:23.000 : en:Глава 9
00:54:03.000 : en:Глава 10
00:59:51.000 : en:Глава 11
01:04:52.000 : en:Глава 12
01:10:14.000 : en:Глава 13
01:16:19.000 : en:Глава 14
01:21:49.000 : en:Глава 15
01:27:57.000 : en:Глава 16
01:33:51.000 : en:Глава 17
01:39:34.000 : en:Глава 18
01:45:35.000 : en:Глава 19
Скриншоты:

[Цитировать]



Показать сообщения:    

Текущее время: 08-Дек 17:16

Часовой пояс: UTC + 3


Вы не можете начинать темы
Вы не можете отвечать на сообщения
Вы не можете редактировать свои сообщения
Вы не можете удалять свои сообщения
Вы не можете голосовать в опросах
Вы не можете прикреплять файлы к сообщениям
Вы не можете скачивать файлы

!ВНИМАНИЕ!
Сайт не предоставляет электронные версии произведений, а занимается лишь коллекционированием и каталогизацией ссылок, присылаемых и публикуемых на форуме нашими читателями. Если вы являетесь правообладателем какого-либо представленного материала и не желаете, чтобы ссылка на него находилась в нашем каталоге, свяжитесь с нами, и мы незамедлительно удалим ее. Файлы для обмена на трекере предоставлены пользователями сайта, и администрация не несет ответственности за их содержание. Просьба не заливать файлы, защищенные авторскими правами, а также файлы нелегального содержания!