[ Сегодня идет свободное скачивание без начисления Download ]


Статистика раздачи
Нет
 
   
 
Top  
 
 
Любовь без обязательств
Sleeping with Other People
«a romantic comedy with commitment issues»

Страна: США
Жанр: комедия
Год выпуска: 2015
Продолжительность: 01:41:15
Перевод: Профессиональный (полное дублирование) [Лицензия iTunes]
Субтитры: английские, английские (SDH)
Оригинальная аудиодорожка: нет
Режиссер: Лесли Хэдланд / Leslye Headland
В ролях: Джейсон Судейкис, Элисон Бри, Джордан Карлос, Маргарита Левиева, Чарльз Кэйн, Адам Броди, Майкл Сирил Крейтон, Билли Айкнер, Джейсон Манцукас, Маргарет Одетт, Аманда Пит, Виктория Фрингс
Описание:
Джейк - дамский угодник, каких свет не видывал. Он с легкостью завоевывает женские сердца, а потом разбивает их. Лэйни - его полная противоположность, она еще со студенческих лет влюблена в одного и того же мужчину, но чем больше проходит времени, тем очевиднее становится, что с ним у нее нет будущего. У этих двоих есть одна романтическая история из прошлого. История, которая может помочь им изменить себя. Но для этого им придется придерживаться между собой исключительно дружеских отношений, ведь секс в их жизни все лишь усложнял. Смогут эти двое удержаться от соблазна и помочь друг другу?
Автор рипа: Stalker oK
Сэмпл
Качество видео: BDRip-AVC [kinozal / Blu-ray Remux / 1080p]
Формат видео: MKV
Видео кодек: AVC
Аудио кодек: AC3
Видео: 1619 Кбит/сек, 1032x430 (2.40:1), 23,976 кадр/сек, AVC
Аудио: русский, 384 Кбит/сек, 48 КГц, 16 бит, 5.1, AC3
Навигация по главам: есть

MediaInfo

Общее
Уникальный идентификатор : 192765675643772685122307419073449230374 (0x9105519624662316AB28F73431E70026)
Полное имя : M:\Rips\Sleeping with Other People\Sleeping.with.Other.People.2015.BDRip-AVC.Dub.1.45Gb.stalkerok.new-team.mkv
Формат : Matroska
Версия формата : Version 4 / Version 2
Размер файла : 1,42 Гбайт
Продолжительность : 1 ч. 41 м.
Общий поток : 2003 Кбит/сек
Название фильма : Sleeping with Other People (2015) (New-Team) (Rip by Stalker oK)
Дата кодирования : UTC 2016-01-05 10:35:24
Программа кодирования : mkvmerge v8.6.1 ('Flying') 64bit
Библиотека кодирования : libebml v1.3.3 + libmatroska v1.4.4
Видео
Идентификатор : 1
Формат : AVC
Формат/Информация : Advanced Video Codec
Профиль формата : High@L4.1
Параметр CABAC формата : Да
Параметр ReFrames формата : 14 кадров
Идентификатор кодека : V_MPEG4/ISO/AVC
Продолжительность : 1 ч. 41 м.
Битрейт : 1619 Кбит/сек
Ширина : 1032 пикселя
Высота : 430 пикселей
Соотношение сторон : 2,40:1
Режим частоты кадров : Постоянный
Частота кадров : 23,976 (24000/1001) кадра/сек
Цветовое пространство : YUV
Субдискретизация насыщенности : 4:2:0
Битовая глубина : 8 бит
Тип развёртки : Прогрессивная
Бит/(Пиксели*Кадры) : 0.152
Размер потока : 1,14 Гбайт (81%)
Заголовок : Sleeping with Other People (2015) (New-Team) (Rip by Stalker oK)
Библиотека кодирования : x264 core 148 r2638kMod 7599210
Настройки программы : cabac=1 / ref=14 / deblock=1:-3:-3 / analyse=0x3:0x133 / me=umh / subme=11 / psy=1 / fade_compensate=0.00 / psy_rd=1.00:0.10 / mixed_ref=1 / me_range=48 / chroma_me=1 / trellis=2 / 8x8dct=1 / cqm=0 / deadzone=21,11 / fast_pskip=0 / chroma_qp_offset=-3 / threads=12 / lookahead_threads=3 / sliced_threads=0 / nr=0 / decimate=0 / interlaced=0 / bluray_compat=0 / constrained_intra=0 / fgo=0 / bframes=15 / b_pyramid=2 / b_adapt=2 / b_bias=0 / direct=3 / weightb=1 / open_gop=0 / weightp=2 / keyint=240 / keyint_min=23 / scenecut=40 / intra_refresh=0 / rc_lookahead=60 / rc=2pass / mbtree=0 / bitrate=1619 / ratetol=1.0 / qcomp=0.70 / qpmin=0 / qpmax=69 / qpstep=4 / cplxblur=20.0 / qblur=0.5 / vbv_maxrate=50000 / vbv_bufsize=62500 / nal_hrd=none / filler=0 / ip_ratio=1.40 / pb_ratio=1.30 / aq=3:0.90
Default : Да
Forced : Нет
Аудио
Идентификатор : 2
Формат : AC-3
Формат/Информация : Audio Coding 3
Расширение режима : CM (complete main)
Параметр Endianness формата : Big
Идентификатор кодека : A_AC3
Продолжительность : 1 ч. 41 м.
Вид битрейта : Постоянный
Битрейт : 384 Кбит/сек
Каналы : 6 каналов
Расположение каналов : Front: L C R, Side: L R, LFE
Частота : 48,0 КГц
Частота кадров : 31,250 кадров/сек (1536 spf)
Метод сжатия : С потерями
Размер потока : 278 Мбайт (19%)
Язык : Russian
Default : Да
Forced : Нет
Текст #1
Идентификатор : 3
Формат : UTF-8
Идентификатор кодека : S_TEXT/UTF8
Идентификатор кодека/Информация : UTF-8 Plain Text
Продолжительность : 1 ч. 38 м.
Битрейт : 90 бит/сек
Count of elements : 1895
Размер потока : 64,8 Кбайт (0%)
Язык : English
Default : Нет
Forced : Нет
Текст #2
Идентификатор : 4
Формат : UTF-8
Идентификатор кодека : S_TEXT/UTF8
Идентификатор кодека/Информация : UTF-8 Plain Text
Продолжительность : 1 ч. 38 м.
Битрейт : 91 бит/сек
Count of elements : 1933
Размер потока : 65,7 Кбайт (0%)
Заголовок : SDH
Язык : English
Default : Нет
Forced : Нет
Меню
00:00:00.000 : en:Chapter 01
00:17:53.989 : en:Chapter 02
00:33:48.276 : en:Chapter 03
00:46:55.270 : en:Chapter 04
00:55:48.803 : en:Chapter 05
01:06:30.611 : en:Chapter 06
01:19:07.659 : en:Chapter 07
01:36:13.976 : en:Chapter 08

Скриншоты

[Цитировать]



Показать сообщения:    

Текущее время: 02-Дек 22:48

Часовой пояс: UTC + 3


Вы не можете начинать темы
Вы не можете отвечать на сообщения
Вы не можете редактировать свои сообщения
Вы не можете удалять свои сообщения
Вы не можете голосовать в опросах
Вы не можете прикреплять файлы к сообщениям
Вы не можете скачивать файлы

!ВНИМАНИЕ!
Сайт не предоставляет электронные версии произведений, а занимается лишь коллекционированием и каталогизацией ссылок, присылаемых и публикуемых на форуме нашими читателями. Если вы являетесь правообладателем какого-либо представленного материала и не желаете, чтобы ссылка на него находилась в нашем каталоге, свяжитесь с нами, и мы незамедлительно удалим ее. Файлы для обмена на трекере предоставлены пользователями сайта, и администрация не несет ответственности за их содержание. Просьба не заливать файлы, защищенные авторскими правами, а также файлы нелегального содержания!