[ Сегодня идет свободное скачивание без начисления Download ]


Статистика раздачи
Нет
 
   
 
Top  
 
 
Убей меня три раза / Kill Me Three Times Год выпуска: 2014
Страна: США, Австралия
Жанр: боевик, триллер
Продолжительность: 01:30:22
Перевод: Любительский (многоголосый, закадровый) [BadCatStudio]
Режиссёр: Крив Стендерс-В ролях: Тереза Палмер, Саймон Пегг, Люк Хемсворт, Алиси Брага, Салливан Степлтон, Каллэн Мулвей, Брайан Браун, Стив Ле Маркванд, Тони Спенсер, Анна Филп и др.-Описание: Чарли Вульф - наемный убийца, который ненавидит, когда в его дела вмешивается кто-нибудь посторонний. Однажды к нему обращается старый знакомый Джек Тейлор, который предлагает ему пятьдесят тысяч за убийство своей жены во время ее визита к стоматологу. Выследив жертву, Чарли готовится выполнить заказ, но вскоре замечает, как дантист и его медсестра-ассистентка грузят тело супруги Джека в багажник автомобиля. Киллер совершенно не ожидал такого поворота событий и начал слежку за своими конкурентами. Он уверен только в одном, что смерти этой женщины хочет не только Джек, но возвращать свой гонорар Чарли не намерен...
Внимание! Содержится ненормативная лексика.-Качество: HDRip [Исходник: BDRip 720p]
Формат: AVI
Видео кодек: XviD
Аудио кодек: AC3
Видео: 720x304, 23.976 fps, xvid, 1772 kbps avg, ~0.338 bit/pixel
Аудио #1: 48 kHz, AC3, 2 ch, 192.00 kbps avg MVO [BadCatStudio]
Аудио #2: 48 kHz, AC3, 2 ch, 192.00 kbps avg Original
Субтитры: Русские (Notabenoid), Английский-Сэмпл / IMDB / КиноПоиск-

MediaInfo

Общее
Полное имя                               : D:\НБФ\19456\Kill.Me.Three.Times.2014.HDRip.Rus.Eng-BadCatStudio\Kill.Me.Three.Times.2014.HDRip.Rus.Eng-BadCatStudio.avi
Формат                                   : AVI
Формат/Информация                        : Audio Video Interleave
Размер файла                             : 1,37 Гбайт
Продолжительность                        : 1 ч. 30 м.
Общий поток                              : 2170 Кбит/сек
Программа кодирования                    : VirtualDubMod 1.5.10.2 (build 2542/release)
Библиотека кодирования                   : VirtualDubMod build 2542/release
Видео
Идентификатор                            : 0
Формат                                   : MPEG-4 Visual
Профиль формата                          : Advanced [email protected]
Параметр BVOP формата                    : 2
Параметр QPel формата                    : Нет
Параметр GMC формата                     : Без точки перехода
Параметр матрицы формата                 : Default (MPEG)
Идентификатор кодека                     : XVID
Идентификатор кодека/Подсказка           : XviD
Продолжительность                        : 1 ч. 30 м.
Битрейт                                  : 1772 Кбит/сек
Ширина                                   : 720 пикселей
Высота                                   : 304 пикселя
Соотношение сторон                       : 2,35:1
Частота кадров                           : 23,976 (24000/1001) кадра/сек
Цветовое пространство                    : YUV
Субдискретизация насыщенности            : 4:2:0
Битовая глубина                          : 8 бит
Тип развёртки                            : Прогрессивная
Метод сжатия                             : С потерями
Бит/(Пиксели*Кадры)                      : 0.338
Размер потока                            : 1,12 Гбайт (82%)
Библиотека кодирования                   : XviD 1.2.1 (UTC 2008-12-04)
Аудио #1
Идентификатор                            : 1
Формат                                   : AC-3
Формат/Информация                        : Audio Coding 3
Расширение режима                        : CM (complete main)
Параметр Endianness формата              : Big
Идентификатор кодека                     : 2000
Продолжительность                        : 1 ч. 30 м.
Вид битрейта                             : Постоянный
Битрейт                                  : 192 Кбит/сек
Каналы                                   : 2 канала
Расположение каналов                     : Front: L R
Частота                                  : 48,0 КГц
Частота кадров                           : 31,250 кадров/сек (1536 spf)
Метод сжатия                             : С потерями
Размер потока                            : 124 Мбайт (9%)
Выравнивание                             : Разделение по промежуткам
Продолжительность промежутка             : 42  мс. (1,00 видеокадр)
Время предзагрузки промежутка            : 500  мс.
Аудио #2
Идентификатор                            : 2
Формат                                   : AC-3
Формат/Информация                        : Audio Coding 3
Расширение режима                        : CM (complete main)
Параметр Endianness формата              : Big
Идентификатор кодека                     : 2000
Продолжительность                        : 1 ч. 30 м.
Вид битрейта                             : Постоянный
Битрейт                                  : 192 Кбит/сек
Каналы                                   : 2 канала
Расположение каналов                     : Front: L R
Частота                                  : 48,0 КГц
Частота кадров                           : 31,250 кадров/сек (1536 spf)
Метод сжатия                             : С потерями
Размер потока                            : 124 Мбайт (9%)
Выравнивание                             : Разделение по промежуткам
Продолжительность промежутка             : 42  мс. (1,00 видеокадр)
Время предзагрузки промежутка            : 500  мс.

Скриншоты

[Цитировать]



Показать сообщения:    

Текущее время: 05-Дек 21:41

Часовой пояс: UTC + 3


Вы не можете начинать темы
Вы не можете отвечать на сообщения
Вы не можете редактировать свои сообщения
Вы не можете удалять свои сообщения
Вы не можете голосовать в опросах
Вы не можете прикреплять файлы к сообщениям
Вы не можете скачивать файлы

!ВНИМАНИЕ!
Сайт не предоставляет электронные версии произведений, а занимается лишь коллекционированием и каталогизацией ссылок, присылаемых и публикуемых на форуме нашими читателями. Если вы являетесь правообладателем какого-либо представленного материала и не желаете, чтобы ссылка на него находилась в нашем каталоге, свяжитесь с нами, и мы незамедлительно удалим ее. Файлы для обмена на трекере предоставлены пользователями сайта, и администрация не несет ответственности за их содержание. Просьба не заливать файлы, защищенные авторскими правами, а также файлы нелегального содержания!