[ Сегодня идет свободное скачивание без начисления Download ]


Статистика раздачи
Нет
 
   
 
Top  
 
 
-April Wine / First Glance Harder...Faster (Digital Re-Mastered)-- Год | Год издания: 1978 | 79 | 2007
Страна: Canada
Жанр: Classic Rock
Продолжительность: 01:06:26-Лейбл издания: BGO Records
Страна-выпуска диска: 017261207623
Формат: APE
Битрейт аудио: lossless
Тип рипа: image+.cue
Наличие сканов в содержимом раздачи: да
-April Wine — канадская рок-группа, образованная в 1969 году. Группа выпустила более 20 альбомов и продолжает вести активную гастрольную деятельность, пользуясь успехом как в родной Канаде, так и за её пределами.-

Трэклист

01.Get Ready For Love (04:26)
02.Hot On The Wheels Of Love (03:15)
03.Rock N' Roll ls A Vicious Game (03:11)
04.Right Down To lt (03:03)
05.Roller (04:20)
06.Comin'Right Down On Top Of Me (04:12)
07.l'm Alive (02:55)
08.Let Yourself Go (02:57)
09.Silver Dollar (05:17)
10.l Like To Rock (04:24)
11.Say Hello (02:59)
12.Tonite (04:14)
13.Ladies Man (03:36)
14.Before The Dawn (04:22)
15.Babes in Arms (03:21)
16.Better Do it Well (03:35)
17.21st Century Schizoid Man (06:27)
-

Лог создания рипа

Exact Audio Copy V0.99 prebeta 5 from 4. May 2009
EAC extraction logfile from 5. January 2016, 11:47
April Wine / First Glance   Harder...Faster
Used drive  : ASUS    DRW-20B1ST   Adapter: 3  ID: 0
Read mode               : Secure
Utilize accurate stream : Yes
Defeat audio cache      : Yes
Make use of C2 pointers : No
Read offset correction                      : 6
Overread into Lead-In and Lead-Out          : No
Fill up missing offset samples with silence : Yes
Delete leading and trailing silent blocks   : No
Null samples used in CRC calculations       : Yes
Used interface                              : Native Win32 interface for Win NT & 2000
Used output format              : Monkey's Audio Lossless Encoder
Selected bitrate                : High Lossless Compression
Quality                         : High
Add ID3 tag                     : No
Command line compressor         : C:\Program Files (x86)\Monkey's Audio\MAC.exe
Additional command line options :  %source% %dest% -c3000
Use compression offset          : 0
TOC of the extracted CD
     Track |   Start  |  Length  | Start sector | End sector
    ---------------------------------------------------------
        1  |  0:00.00 |  4:25.05 |         0    |    19879
        2  |  4:25.05 |  3:14.27 |     19880    |    34456
        3  |  7:39.32 |  3:10.52 |     34457    |    48758
        4  | 10:50.09 |  3:02.60 |     48759    |    62468
        5  | 13:52.69 |  4:19.29 |     62469    |    81922
        6  | 18:12.23 |  4:11.48 |     81923    |   100795
        7  | 22:23.71 |  2:54.34 |    100796    |   113879
        8  | 25:18.30 |  2:56.13 |    113880    |   127092
        9  | 28:14.43 |  5:16.66 |    127093    |   150858
       10  | 33:31.34 |  4:23.02 |    150859    |   170585
       11  | 37:54.36 |  2:58.74 |    170586    |   184009
       12  | 40:53.35 |  4:13.02 |    184010    |   202986
       13  | 45:06.37 |  3:35.71 |    202987    |   219182
       14  | 48:42.33 |  4:21.15 |    219183    |   238772
       15  | 53:03.48 |  3:20.33 |    238773    |   253805
       16  | 56:24.06 |  3:35.00 |    253806    |   269930
       17  | 59:59.06 |  6:26.27 |    269931    |   298907
Range status and errors
Selected range
     Filename E:\April Wine - First Glance   Harder...Faster.wav
     Peak level 100.0 %
     Range quality 99.9 %
     Copy CRC 3D3F4D51
     Copy OK
No errors occurred
AccurateRip summary
Track  1  cannot be verified as accurate (confidence 5)  [D6DFCFC4], AccurateRip returned [E1A39874]
Track  2  cannot be verified as accurate (confidence 5)  [8C74A599], AccurateRip returned [034CF1E8]
Track  3  cannot be verified as accurate (confidence 5)  [63AA97D0], AccurateRip returned [96847EA0]
Track  4  cannot be verified as accurate (confidence 5)  [709B8553], AccurateRip returned [59A86100]
Track  5  cannot be verified as accurate (confidence 5)  [F2F5F985], AccurateRip returned [93A0EB74]
Track  6  cannot be verified as accurate (confidence 5)  [1C90E939], AccurateRip returned [39A330E2]
Track  7  cannot be verified as accurate (confidence 5)  [DE2D5336], AccurateRip returned [D5E9C9D4]
Track  8  cannot be verified as accurate (confidence 5)  [01C8545D], AccurateRip returned [6922F43F]
Track  9  cannot be verified as accurate (confidence 5)  [E013251E], AccurateRip returned [DF53EDA9]
Track 10  cannot be verified as accurate (confidence 5)  [ABF88C5B], AccurateRip returned [78049D7A]
Track 11  cannot be verified as accurate (confidence 5)  [3C1DD0BC], AccurateRip returned [CD30146D]
Track 12  cannot be verified as accurate (confidence 5)  [7366480A], AccurateRip returned [6CEDED72]
Track 13  cannot be verified as accurate (confidence 5)  [EA420789], AccurateRip returned [DFFCA3E7]
Track 14  cannot be verified as accurate (confidence 5)  [BE7744C7], AccurateRip returned [2296AD4C]
Track 15  cannot be verified as accurate (confidence 5)  [9229F889], AccurateRip returned [83114DA7]
Track 16  cannot be verified as accurate (confidence 5)  [4FD5BA65], AccurateRip returned [BA6A6F95]
Track 17  cannot be verified as accurate (confidence 5)  [9D92A2B9], AccurateRip returned [50B05881]
No tracks could be verified as accurate
You may have a different pressing from the one(s) in the database
End of status report

Индексная карта (non-compilant .cue)

REM GENRE Rock
REM DATE 1978
REM DISCID E90F9111
REM COMMENT "ExactAudioCopy v0.99pb5"
PERFORMER "April Wine"
TITLE "First Glance   Harder...Faster"
FILE "April Wine - First Glance   Harder...Faster.ape" WAVE
  TRACK 01 AUDIO
    TITLE "Get Ready For Love"
    PERFORMER "April Wine"
    INDEX 01 00:00:00
  TRACK 02 AUDIO
    TITLE "Hot On The Wheels Of Love"
    PERFORMER "April Wine"
    INDEX 00 04:22:63
    INDEX 01 04:25:05
  TRACK 03 AUDIO
    TITLE "Rock N' Roll ls A Vicious Game"
    PERFORMER "April Wine"
    INDEX 00 07:37:27
    INDEX 01 07:39:32
  TRACK 04 AUDIO
    TITLE "Right Down To lt"
    PERFORMER "April Wine"
    INDEX 00 10:49:59
    INDEX 01 10:50:09
  TRACK 05 AUDIO
    TITLE Roller
    PERFORMER "April Wine"
    INDEX 01 13:52:69
  TRACK 06 AUDIO
    TITLE "Comin'Right Down On Top Of Me"
    PERFORMER "April Wine"
    INDEX 00 18:10:26
    INDEX 01 18:12:23
  TRACK 07 AUDIO
    TITLE "l'm Alive"
    PERFORMER "April Wine"
    INDEX 00 22:20:72
    INDEX 01 22:23:71
  TRACK 08 AUDIO
    TITLE "Let Yourself Go"
    PERFORMER "April Wine"
    INDEX 00 25:16:30
    INDEX 01 25:18:30
  TRACK 09 AUDIO
    TITLE "Silver Dollar"
    PERFORMER "April Wine"
    INDEX 00 28:13:39
    INDEX 01 28:14:43
  TRACK 10 AUDIO
    TITLE "l Like To Rock"
    PERFORMER "April Wine"
    INDEX 00 33:29:37
    INDEX 01 33:31:34
  TRACK 11 AUDIO
    TITLE "Say Hello"
    PERFORMER "April Wine"
    INDEX 00 37:52:03
    INDEX 01 37:54:36
  TRACK 12 AUDIO
    TITLE Tonite
    PERFORMER "April Wine"
    INDEX 00 40:52:21
    INDEX 01 40:53:35
  TRACK 13 AUDIO
    TITLE "Ladies Man"
    PERFORMER "April Wine"
    INDEX 00 45:05:73
    INDEX 01 45:06:37
  TRACK 14 AUDIO
    TITLE "Before The Dawn"
    PERFORMER "April Wine"
    INDEX 00 48:40:42
    INDEX 01 48:42:33
  TRACK 15 AUDIO
    TITLE "Babes in Arms"
    PERFORMER "April Wine"
    INDEX 00 53:02:26
    INDEX 01 53:03:48
  TRACK 16 AUDIO
    TITLE "Better Do it Well"
    PERFORMER "April Wine"
    INDEX 00 56:22:51
    INDEX 01 56:24:06
  TRACK 17 AUDIO
    TITLE "21st Century Schizoid Man"
    PERFORMER "April Wine"
    INDEX 00 59:58:57
    INDEX 01 59:59:06

Скриншот спектра частот

--Не забываем говорить

[Цитировать]



Показать сообщения:    

Текущее время: 06-Дек 19:09

Часовой пояс: UTC + 3


Вы не можете начинать темы
Вы не можете отвечать на сообщения
Вы не можете редактировать свои сообщения
Вы не можете удалять свои сообщения
Вы не можете голосовать в опросах
Вы не можете прикреплять файлы к сообщениям
Вы не можете скачивать файлы

!ВНИМАНИЕ!
Сайт не предоставляет электронные версии произведений, а занимается лишь коллекционированием и каталогизацией ссылок, присылаемых и публикуемых на форуме нашими читателями. Если вы являетесь правообладателем какого-либо представленного материала и не желаете, чтобы ссылка на него находилась в нашем каталоге, свяжитесь с нами, и мы незамедлительно удалим ее. Файлы для обмена на трекере предоставлены пользователями сайта, и администрация не несет ответственности за их содержание. Просьба не заливать файлы, защищенные авторскими правами, а также файлы нелегального содержания!