[ Сегодня идет свободное скачивание без начисления Download ]


Статистика раздачи
Нет
 
   
 
Top  
 
 
Отбросы / The Throwaways (2015) WEB-DL 720p Информация о фильме
Название: Отбросы
Оригинальное название: The Throwaways
Год выхода: 2015
Жанр: фэнтези, боевик, триллер
Режиссер: Тони Буи
В ролях: Питер Брук, Джеймс Каан, Ноэль Кларк, Кевин Диллон, Даррелл Д’Силва, Валентин Ганев, Дон Хэндфилд, Кристиан Хильборг, Сэм Хантингтон, Николай Ильчев
О фильме: Динамичный боевик о талантливом хакере. Действие начинается где-то в степях Казахстана. Именно здесь благородный харкер Дрю Рейндольд по кличке Блэк Джек, самопровозглашенный Робин Гуд, мировой паутины, взламывает сайты экстремистских организаций. Совсем недавно он «хакнул» маскирующийся под обычный новостной портал сайт, набирающий и тренирующий джихадистов. После того, как Дрю размещает на их сайте американский флаг и провокационную надпись, ему поступает звонок из Вирджинии с сообщением о том, что его засекли. Трейлер, в котором он скрывался все это время, окружают спецназовцы. Дрю захватывают и доставляют в секретный штаб ЦРУ, где сообщают, террористы вывели из строя генератор, и почти три миллиона жителей Чикаго остались без света. Агенты потеряли ключ шифрования, с помощью которого был запущен код, приведший к сбою. Рейнольду предлагают два варианта развития событий: либо хакер начинает работать на ЦРУ, либо проведет остаток жизни в тюрьме.

Выпущено: США / The Combine, UFO International Productions
Продолжительность: 01:27:19
Озвучивание: Профессиональное (многоголосое) [Официальный звук]
Файл
Формат: MKV
Качество: WEB-DL 720p
Видео: MPEG-4 AVC, 4226 kb/s, 1280x720
Аудио: Russian: AC3, 192 kb/s (2 ch) / English: 384 kb/s (6 ch)

MI

Format : Matroska
Format version : Version 2
File size : 2.89 GiB
Duration : 1h 27mn
Overall bit rate : 4 733 Kbps
Encoded date : UTC 2016-01-05 12:36:41
Writing application : mkvmerge v7.8.0 ('River Man') 32bit built on Apr 3 2015 12:11:22
Writing library : libebml v1.3.1 + libmatroska v1.4.2
Video
ID : 1
Format : AVC
Format/Info : Advanced Video Codec
Format profile : High@L4.1
Format settings, CABAC : Yes
Format settings, ReFrames : 4 frames
Codec ID : V_MPEG4/ISO/AVC
Duration : 1h 27mn
Bit rate : 4 226 Kbps
Width : 1 280 pixels
Height : 720 pixels
Display aspect ratio : 16:9
Frame rate mode : Constant
Frame rate : 23.976 fps
Color space : YUV
Chroma subsampling : 4:2:0
Bit depth : 8 bits
Scan type : Progressive
Bits/(Pixel*Frame) : 0.191
Stream size : 2.48 GiB (86%)
Writing library : x264 core 130 r2273 b3065e6
Encoding settings : cabac=1 / ref=1 / deblock=1:0:0 / analyse=0x3:0x113 / me=hex / subme=2 / psy=1 / psy_rd=1.00:0.00 / mixed_ref=0 / me_range=16 / chroma_me=1 / trellis=0 / 8x8dct=1 / cqm=0 / deadzone=21,11 / fast_pskip=1 / chroma_qp_offset=0 / threads=6 / lookahead_threads=2 / sliced_threads=0 / nr=0 / decimate=1 / interlaced=0 / bluray_compat=0 / constrained_intra=0 / bframes=3 / b_pyramid=2 / b_adapt=1 / b_bias=0 / direct=1 / weightb=1 / open_gop=0 / weightp=1 / keyint=240 / keyint_min=24 / scenecut=40 / intra_refresh=0 / rc_lookahead=10 / rc=abr / mbtree=1 / bitrate=4226 / ratetol=1.0 / qcomp=0.60 / qpmin=0 / qpmax=69 / qpstep=4 / vbv_maxrate=62500 / vbv_bufsize=78125 / nal_hrd=none / ip_ratio=1.40 / aq=1:1.00
Language : English
Default : Yes
Forced : No
Color range : Limited
Color primaries : BT.709
Transfer characteristics : BT.709
Matrix coefficients : BT.709
Audio #1
ID : 2
Format : AC-3
Format/Info : Audio Coding 3
Mode extension : CM (complete main)
Format settings, Endianness : Big
Codec ID : A_AC3
Duration : 1h 27mn
Bit rate mode : Constant
Bit rate : 192 Kbps
Channel(s) : 2 channels
Channel positions : Front: L R
Sampling rate : 48.0 KHz
Bit depth : 16 bits
Compression mode : Lossy
Stream size : 120 MiB (4%)
Language : Russian
Default : Yes
Forced : No
Audio #2
ID : 3
Format : AC-3
Format/Info : Audio Coding 3
Mode extension : CM (complete main)
Format settings, Endianness : Big
Codec ID : A_AC3
Duration : 1h 27mn
Bit rate mode : Constant
Bit rate : 384 Kbps
Channel(s) : 6 channels
Channel positions : Front: L C R, Side: L R, LFE
Sampling rate : 48.0 KHz
Bit depth : 16 bits
Compression mode : Lossy
Stream size : 240 MiB (8%)
Language : English
Default : No
Forced : No

Скриншоты

[Цитировать]



Показать сообщения:    

Текущее время: 11-Дек 03:18

Часовой пояс: UTC + 3


Вы не можете начинать темы
Вы не можете отвечать на сообщения
Вы не можете редактировать свои сообщения
Вы не можете удалять свои сообщения
Вы не можете голосовать в опросах
Вы не можете прикреплять файлы к сообщениям
Вы не можете скачивать файлы

!ВНИМАНИЕ!
Сайт не предоставляет электронные версии произведений, а занимается лишь коллекционированием и каталогизацией ссылок, присылаемых и публикуемых на форуме нашими читателями. Если вы являетесь правообладателем какого-либо представленного материала и не желаете, чтобы ссылка на него находилась в нашем каталоге, свяжитесь с нами, и мы незамедлительно удалим ее. Файлы для обмена на трекере предоставлены пользователями сайта, и администрация не несет ответственности за их содержание. Просьба не заливать файлы, защищенные авторскими правами, а также файлы нелегального содержания!