[ Today is free to download without increasing Download ]

DL-List and Torrent activity
-The Pretty Reckless - Heaven Knows-- Год выпуска: 2014 г.
Страна: USA
Жанр: Rock
Продолжительность: 00:03:45-Качество видео: WEB-DLRip
Контейнер: MP4
Стандарт разрешения: 1080p
Видео кодек: AVC
Аудио кодек: AAC
Видео: 1920x1080, 1873 Кбит/сек, 23,976 кадра/сек, 0.038 bit/pic
Аудио: 126 Кбит/сек, 2 канала, 44,1 КГц
The Pretty Reckless — рок-группа из Нью-Йорка, возглавляемая Тейлор Момсен. Изначально названием группы должно было стать The Reckless, но его сменили на The Pretty Reckless из-за проблем с авторским правом на название.-


01. Heaven Knows

Media Info

Полное имя                               : D:\Torrent files\The Pretty Reckless - Heaven Knows 2014.mp4
Формат                                   : MPEG-4
Профиль формата                          : Base Media
Идентификатор кодека                     : isom
Размер файла                             : 53,7 Мбайт
Продолжительность                        : 3 м. 45 с.
Общий поток                              : 2004 Кбит/сек
Программа кодирования                    : Lavf55.12.100
Идентификатор                            : 1
Формат                                   : AVC
Формат/Информация                        : Advanced Video Codec
Профиль формата                          : High@L4
Параметр CABAC формата                   : Да
Параметр ReFrames формата                : 3 кадра
Идентификатор кодека                     : avc1
Идентификатор кодека/Информация          : Advanced Video Coding
Продолжительность                        : 3 м. 44 с.
Битрейт                                  : 1873 Кбит/сек
Ширина                                   : 1920 пикселей
Высота                                   : 1080 пикселей
Соотношение сторон                       : 16:9
Режим частоты кадров                     : Постоянный
Частота кадров                           : 23,976 кадра/сек
Цветовое пространство                    : YUV
Субдискретизация насыщенности            : 4:2:0
Битовая глубина                          : 8 бит
Тип развёртки                            : Прогрессивная
Бит/(Пиксели*Кадры)                      : 0.038
Размер потока                            : 50,2 Мбайт (93%)
Идентификатор                            : 2
Формат                                   : AAC
Формат/Информация                        : Advanced Audio Codec
Профиль формата                          : LC
Идентификатор кодека                     : 40
Продолжительность                        : 3 м. 45 с.
Вид битрейта                             : Постоянный
Битрейт                                  : 126 Кбит/сек
Каналы                                   : 2 канала
Расположение каналов                     : Front: L R
Частота                                  : 44,1 КГц
Метод сжатия                             : С потерями
Размер потока                            : 3,37 Мбайт (6%)




Display posts:    

Current time is: 24-Oct 21:28

All times are UTC + 3

You cannot post new topics in this forum
You cannot reply to topics in this forum
You cannot edit your posts in this forum
You cannot delete your posts in this forum
You cannot vote in polls in this forum
You cannot attach files in this forum
You cannot download files in this forum

The site does not give electronic versions of products, and is engaged only in a collecting and cataloguing of the references sent and published at a forum by our readers. If you are the legal owner of any submitted material and do not wish that the reference to it was in our catalogue, contact us and we shall immediately remove her. Files for an exchange on tracker are given by users of a site, and the administration does not bear the responsibility for their maintenance. The request to not fill in the files protected by copyrights, and also files of the illegal maintenance!