[ Сегодня идет свободное скачивание без начисления Download ]


Статистика раздачи
Скачал: [ 3 ]
 
   
 
Top  
 
 
Андрей Кудлай | Курс по регулярным выражениям на PHP (2015) PCRec - Автор (режиссер): Андрей Кудлай
Жанр: Программирование, PHP
Описание:
Представляем Вам уникальный для Рунета онлайн курс, по регулярным выражениям на PHP.
Регулярные выражения на PHP - это невероятно мощное средство для работы с текстами, для поиска по массиву текста, проверки и обработки текста, и многое другое.
В нашем видеокурсе по регулярным выражениям на PHP, вы ознакомитесь со многими примерами и сами сможете создавать свои шаблоны.
При помощи шаблонов регулярных выражений можно найти в тексте буквально что-угодно. Именно благодаря мощи регулярных выражений, они включены во многие языки программирования - PERL, PHP, JavaScript, Python, Ruby и множество других. Поддержка регулярных выражений включена во множество редакторов - Notepad++, Sublime Text, AkelPad, все возможные IDE.
Несмотря на все преимущества использования регулярных выражений, многие веб-мастера сами отмечают, что паттерны (шаблоны) регулярных выражений являются их слабым местом. Для новичков шаблоны вообще представляют собой китайскую грамоту. Именно по этим соображениям мы рекомендуем Вам курс по регулярным выражениям на PHP. Благодаря урокам предлагаемого курса Вы на простых и понятных примерах изучите такую относительно сложную тему, как регулярные выражения.
В уроках курса регулярные выражения на PHP мы будем двигаться от простейшего к все более и более сложному и, надеюсь, к завершающим урокам курса Вы уже сможете чувствовать себя гораздо более уверенно в этой теме.
В нашем видеокурсе по регулярным выражениям на PHP, вы ознакомитесь со многими примерами и сами сможете создавать свои шаблоны.
Продолжительность: 11:28:42
Качество видео: PCRec
Видео: AVC/H.264, 1024x768, 1280x720, ~210 Kbps
Аудио: AAC, 2 ch, 125 Kbps

Mediainfo:

General
Complete name               : C:\Users\User\Downloads\Курс по регулярным выражениям на PHP\Урок 1. Введение и общие понятия\regless1.mp4
Format                      : MPEG-4
Format profile              : Base Media / Version 2
Codec ID                    : mp42
File size                   : 90.9 MiB
Duration                    : 37mn 16s
Overall bit rate            : 341 Kbps
Encoded date                : UTC 2015-02-06 12:13:22
Tagged date                 : UTC 2015-02-06 12:13:22
Video
ID                          : 1
Format                      : AVC
Format/Info                 : Advanced Video Codec
Format profile              : High@L4
Format settings, CABAC      : Yes
Format settings, ReFrames   : 4 frames
Codec ID                    : avc1
Codec ID/Info               : Advanced Video Coding
Duration                    : 37mn 16s
Source duration             : 37mn 16s
Bit rate                    : 213 Kbps
Width                       : 1 024 pixels
Height                      : 768 pixels
Display aspect ratio        : 4:3
Frame rate mode             : Constant
Frame rate                  : 15.000 fps
Color space                 : YUV
Chroma subsampling          : 4:2:0
Bit depth                   : 8 bits
Scan type                   : Progressive
Bits/(Pixel*Frame)          : 0.018
Stream size                 : 56.9 MiB (63%)
Source stream size          : 56.9 MiB (63%)
Language                    : English
Encoded date                : UTC 2015-02-06 12:13:22
Tagged date                 : UTC 2015-02-06 12:13:22
Color range                 : Limited
Color primaries             : BT.709
Transfer characteristics    : BT.709
Matrix coefficients         : BT.709
mdhd_Duration               : 2235764
Audio
ID                          : 2
Format                      : AAC
Format/Info                 : Advanced Audio Codec
Format profile              : LC
Codec ID                    : 40
Duration                    : 37mn 16s
Source duration             : 37mn 16s
Bit rate mode               : Constant
Bit rate                    : 125 Kbps
Channel(s)                  : 2 channels
Channel positions           : Front: L R
Sampling rate               : 44.1 KHz
Compression mode            : Lossy
Stream size                 : 33.4 MiB (37%)
Source stream size          : 33.4 MiB (37%)
Language                    : English
Encoded date                : UTC 2015-02-06 12:13:22
Tagged date                 : UTC 2015-02-06 12:13:22
mdhd_Duration               : 2234208
General
Complete name               : C:\Users\User\Downloads\Курс по регулярным выражениям на PHP\Урок 12. Обратные ссылки\regless12.mp4
Format                      : MPEG-4
Format profile              : Base Media / Version 2
Codec ID                    : mp42
File size                   : 39.8 MiB
Duration                    : 25mn 14s
Overall bit rate            : 220 Kbps
Encoded date                : UTC 2015-06-05 12:46:54
Tagged date                 : UTC 2015-06-05 12:46:54
Video
ID                          : 1
Format                      : AVC
Format/Info                 : Advanced Video Codec
Format profile              : High@L4
Format settings, CABAC      : Yes
Format settings, ReFrames   : 4 frames
Codec ID                    : avc1
Codec ID/Info               : Advanced Video Coding
Duration                    : 25mn 14s
Source duration             : 25mn 14s
Bit rate                    : 93.3 Kbps
Width                       : 1 280 pixels
Height                      : 720 pixels
Display aspect ratio        : 16:9
Frame rate mode             : Constant
Frame rate                  : 15.000 fps
Color space                 : YUV
Chroma subsampling          : 4:2:0
Bit depth                   : 8 bits
Scan type                   : Progressive
Bits/(Pixel*Frame)          : 0.007
Stream size                 : 16.9 MiB (42%)
Source stream size          : 16.9 MiB (42%)
Language                    : English
Encoded date                : UTC 2015-06-05 12:46:54
Tagged date                 : UTC 2015-06-05 12:46:54
Color range                 : Limited
Color primaries             : BT.709
Transfer characteristics    : BT.709
Matrix coefficients         : BT.709
mdhd_Duration               : 1514273
Audio
ID                          : 2
Format                      : AAC
Format/Info                 : Advanced Audio Codec
Format profile              : LC
Codec ID                    : 40
Duration                    : 25mn 14s
Source duration             : 25mn 14s
Bit rate mode               : Constant
Bit rate                    : 125 Kbps
Channel(s)                  : 2 channels
Channel positions           : Front: L R
Sampling rate               : 44.1 KHz
Compression mode            : Lossy
Stream size                 : 22.6 MiB (57%)
Source stream size          : 22.6 MiB (57%)
Language                    : English
Encoded date                : UTC 2015-06-05 12:46:54
Tagged date                 : UTC 2015-06-05 12:46:54
mdhd_Duration               : 1513382

Дополнительная информация:

Содержание:
Урок 01. Введение и общие понятия
Урок 02. Метасимволы и модификаторы шаблона
Урок 03. Символьные классы
Урок 04. Работа с пробельными символами
Урок 05. Метасимволы символьных классов
Урок 06. Квантификаторы
Урок 07. Интервальные квантификаторы
Урок 08. Жадные и ленивые квантификаторы
Урок 09. Метасимволы начала и конца строки
Урок 10. Метасимволы границы и не границы слова
Урок 11. Подвыражения в шаблоне
Урок 12. Обратные ссылки
Урок 13. Операция замены в регулярных выражениях
Урок 14. Просмотр вперед и назад
Урок 15. Функции PHP для работы с регулярными выражениями
Урок 16. Функции PHP для работы с регулярными выражениями. Часть 2
Урок 17. Режим юникода в регулярных выражениях
Урок 18. Свойства юникода
Урок 19. Именованные подвыражения
Урок 20. Практика работы с регулярными выражениями
Скриншоты:

Дополнительные скриншоты:

[Цитировать]



Показать сообщения:    

Текущее время: 02-Дек 22:57

Часовой пояс: UTC + 3


Вы не можете начинать темы
Вы не можете отвечать на сообщения
Вы не можете редактировать свои сообщения
Вы не можете удалять свои сообщения
Вы не можете голосовать в опросах
Вы не можете прикреплять файлы к сообщениям
Вы не можете скачивать файлы

!ВНИМАНИЕ!
Сайт не предоставляет электронные версии произведений, а занимается лишь коллекционированием и каталогизацией ссылок, присылаемых и публикуемых на форуме нашими читателями. Если вы являетесь правообладателем какого-либо представленного материала и не желаете, чтобы ссылка на него находилась в нашем каталоге, свяжитесь с нами, и мы незамедлительно удалим ее. Файлы для обмена на трекере предоставлены пользователями сайта, и администрация не несет ответственности за их содержание. Просьба не заливать файлы, защищенные авторскими правами, а также файлы нелегального содержания!