[ Today is free to download without increasing Download ]

DL-List and Torrent activity
-Pop Evil - Footsteps-- Год выпуска: 2015 г.
Страна: USA
Жанр: Heavy Metal, Alternative
Продолжительность: 00:04:19-Качество видео: WEB-DLRip
Контейнер: MP4
Стандарт разрешения: 1080p
Видео кодек: AVC
Аудио кодек: AAC
Видео: 1920x1080, 2026 Кбит/сек, 24,000 кадра/сек, 0.041 bit/pic
Аудио: 126 Кбит/сек, 2 канала, 44,1 КГц
-Описание: Участники: Ли Какати, Мэтт Дирито, Дейв Грейс, Ник Фуэллинг, Тони Грев, Дилан Аллисон-


01. Footsteps

Media Info

Полное имя                               : D:\Torrent files\Pop Evil - Footsteps 2015.mp4
Формат                                   : MPEG-4
Профиль формата                          : Base Media
Идентификатор кодека                     : isom
Размер файла                             : 66,8 Мбайт
Продолжительность                        : 4 м. 19 с.
Общий поток                              : 2157 Кбит/сек
Программа кодирования                    : Lavf55.33.100
Идентификатор                            : 1
Формат                                   : AVC
Формат/Информация                        : Advanced Video Codec
Профиль формата                          : High@L4
Параметр CABAC формата                   : Да
Параметр ReFrames формата                : 3 кадра
Идентификатор кодека                     : avc1
Идентификатор кодека/Информация          : Advanced Video Coding
Продолжительность                        : 4 м. 19 с.
Duration_FirstFrame                      : -42 мс.
Битрейт                                  : 2026 Кбит/сек
Ширина                                   : 1920 пикселей
Высота                                   : 1080 пикселей
Соотношение сторон                       : 16:9
Режим частоты кадров                     : Переменный
Частота кадров                           : 24,000 кадра/сек
Минимальная частота кадров               : 24,000 кадра/сек
Максимальная частота кадров              : 24,013 кадра/сек
Цветовое пространство                    : YUV
Субдискретизация насыщенности            : 4:2:0
Битовая глубина                          : 8 бит
Тип развёртки                            : Прогрессивная
Бит/(Пиксели*Кадры)                      : 0.041
Размер потока                            : 62,7 Мбайт (94%)
Идентификатор                            : 2
Формат                                   : AAC
Формат/Информация                        : Advanced Audio Codec
Профиль формата                          : LC
Идентификатор кодека                     : 40
Продолжительность                        : 4 м. 19 с.
Вид битрейта                             : Постоянный
Битрейт                                  : 126 Кбит/сек
Каналы                                   : 2 канала
Расположение каналов                     : Front: L R
Частота                                  : 44,1 КГц
Метод сжатия                             : С потерями
Размер потока                            : 3,89 Мбайт (6%)




Display posts:    

Current time is: 27-Oct 02:12

All times are UTC + 3

You cannot post new topics in this forum
You cannot reply to topics in this forum
You cannot edit your posts in this forum
You cannot delete your posts in this forum
You cannot vote in polls in this forum
You cannot attach files in this forum
You cannot download files in this forum

The site does not give electronic versions of products, and is engaged only in a collecting and cataloguing of the references sent and published at a forum by our readers. If you are the legal owner of any submitted material and do not wish that the reference to it was in our catalogue, contact us and we shall immediately remove her. Files for an exchange on tracker are given by users of a site, and the administration does not bear the responsibility for their maintenance. The request to not fill in the files protected by copyrights, and also files of the illegal maintenance!