[ Сегодня идет свободное скачивание без начисления Download ]


Статистика раздачи
Нет
 
   
 
Top  
 
 
Чирак / Chi-Raq (2015) HDRip- Производство: США
Жанр: Драма
Режиссер: Спайк Ли
Актеры: Ник Кэннон, Тейона Паррис, Уэсли Снайпс, Анджела Бассетт, Сэмюэл Л. Джексон, Джон Кьюсак, Дженнифер Хадсон, Дэвид Патрик Келли, Д.Б. Суини, Дэйв Шаппелл
Описание: Фильм сосредоточен на растущем насилии в Чикаго.
Дата мировой премьеры: 4 декабря 2015
Продолжительность: 02:07:01
Качество видео: HDRip Сэмпл
Перевод: Любительский двухголосый (Parovoz Production)
Субтитры: Отсутствуют
Реклама: Присутствуют голосовые и текстовые вставки рекламы.
Видео: MPEG4, XviD, 720x304 (2.35:1), 23.976 fps, 1 402 Kbps (0.267 bit/pixel)
Аудио: AC-3, 48.0 KHz, 2 ch, 128 Kbps, CBR

MediaInfo:

Общее
Полное имя : C:\000\Чирак\Chirak 2015 HDRip 1400.avi
Формат : AVI
Формат/Информация : Audio Video Interleave
Размер файла : 1,37 Гбайт
Продолжительность : 2 ч. 7 м.
Общий поток : 1540 Кбит/сек
Программа кодирования : VirtualDubMod 1.5.10.3 | www.virtualdub-fr.org || (build 2550/release)
Библиотека кодирования : VirtualDubMod build 2550/release
Видео
Идентификатор : 0
Формат : MPEG-4 Visual
Профиль формата : Advanced Simple@L5
Параметр BVOP формата : 2
Параметр QPel формата : Нет
Параметр GMC формата : Без точки перехода
Параметр матрицы формата : Default (MPEG)
Идентификатор кодека : XVID
Идентификатор кодека/Подсказка : XviD
Продолжительность : 2 ч. 7 м.
Битрейт : 1402 Кбит/сек
Ширина : 720 пикселей
Высота : 304 пикселя
Соотношение сторон : 2,35:1
Частота кадров : 23,976 кадра/сек
Цветовое пространство : YUV
Субдискретизация насыщенности : 4:2:0
Битовая глубина : 8 бит
Тип развёртки : Прогрессивная
Метод сжатия : С потерями
Бит/(Пиксели*Кадры) : 0.267
Размер потока : 1,24 Гбайт (91%)
Библиотека кодирования : XviD 1.2.1 (UTC 2008-12-04)
Аудио
Идентификатор : 1
Формат : AC-3
Формат/Информация : Audio Coding 3
Расширение режима : CM (complete main)
Идентификатор кодека : 2000
Продолжительность : 2 ч. 7 м.
Вид битрейта : Постоянный
Битрейт : 128 Кбит/сек
Каналы : 2 канала
Расположение каналов : Front: L R
Частота : 48,0 КГц
Битовая глубина : 16 бит
Метод сжатия : С потерями
Размер потока : 116 Мбайт (8%)
Выравнивание : Разделение по промежуткам
Продолжительность промежутка : 42 мс. (1,00 видеокадр)
Время предзагрузки промежутка : 500 мс.[/pre]
Скриншоты:

[Цитировать]

Топик был перенесен из форума Новинки кинопроката в форум Драма
Henkok



Показать сообщения:    

Текущее время: 08-Дек 03:15

Часовой пояс: UTC + 3


Вы не можете начинать темы
Вы не можете отвечать на сообщения
Вы не можете редактировать свои сообщения
Вы не можете удалять свои сообщения
Вы не можете голосовать в опросах
Вы не можете прикреплять файлы к сообщениям
Вы не можете скачивать файлы

!ВНИМАНИЕ!
Сайт не предоставляет электронные версии произведений, а занимается лишь коллекционированием и каталогизацией ссылок, присылаемых и публикуемых на форуме нашими читателями. Если вы являетесь правообладателем какого-либо представленного материала и не желаете, чтобы ссылка на него находилась в нашем каталоге, свяжитесь с нами, и мы незамедлительно удалим ее. Файлы для обмена на трекере предоставлены пользователями сайта, и администрация не несет ответственности за их содержание. Просьба не заливать файлы, защищенные авторскими правами, а также файлы нелегального содержания!