[ Сегодня идет свободное скачивание без начисления Download ]


Статистика раздачи
Нет
 
   
 
Top  
 
 
Puhdys - Виниловая коллекция (4 альбома) (1981-1986) - Год: 1981-1986
Жанр: Rock
Продолжительность: 02:47:59-Кодек: FLAC (image+.cue)
Битрейт: Lossless
Источник оцифровки: автором раздачи
Формат записи: 32/192
Формат раздачи: 24/192-Треклист:

1981 - Schattenreiter

01 - Der Aussenseiter
02 - Wasser und Wein
03 - Ausgebrannt
04 - Was vom Leben bleibt
05 - Im Nebelmeer
06 - Schattenreiter
07 - He, John
08 - Mannlichkeit
09 - Der Trinker
10 - An den Ufern der Nacht

1982 - Computer-Karriere

01 - Computer-Karriere
02 - Flieg Mit Mir
03 - Jahresziten
04 - Stop, Baby, Stop
05 - Karriere
06 - Sehnsucht
07 - TV-Show
08 - Computertraume
09 - Computerman
10 - Hiroshima
11 - Schopfung

1984 - Das Buch

01 - 1984
02 - Ich will nicht vergessen
03 - Die Waerme der Nacht
04 - Der Angstverkaeufer
05 - Die Boote der Jugend
06 - Das Buch
07 - Rockerrente
08 - Niemand wird so wieder werden
09 - Bauernhochzeit
10 - Schlaf mit mir
11 - Das Maerchen

1986 - Ohne Schminke

01 - Ohne Schminke
02 - Blind geboren
03 - Liebe auf den ersten Ton
04 - Wieviel Liebe
05 - Make Love Not War
06 - Traumschifttramp
07 - Puppenmutti
08 - Tanz mit mir
09 - Lied fur einen Fan
10 - Rock'n'Roll ist mein Begleiter
-

Technical Info:

Страна-производитель винила: Germany
Состояние винила: Ex
Проигрыватель: Panasonic SL-H401
Картридж: AT440MLa
Фонокорректор (связка): NAD PP2 + Technics SH-AC300
ЦАП/АЦП: Creative E-MU 0202 USB

MI

Общее
Полное имя                               : E:\Music\Puhdys\1981 - Puhdys 10 - Schattenreiter\Puhdys - Schattenreiter - Side A.flac
Формат                                   : FLAC
Формат/Информация                        : Free Lossless Audio Codec
Размер файла                             : 784 Мбайт
Продолжительность                        : 19 м.
Режим общего битрейта                    : Переменный
Общий поток                              : 5492 Кбит/сек
Аудио
Формат                                   : FLAC
Формат/Информация                        : Free Lossless Audio Codec
Продолжительность                        : 19 м.
Вид битрейта                             : Переменный
Битрейт                                  : 5492 Кбит/сек
Каналы                                   : 2 канала
Расположение каналов                     : Front: L R
Частота                                  : 192 КГц
Битовая глубина                          : 24 бит
Размер потока                            : 784 Мбайт (100%)
Библиотека кодирования                   : libFLAC 1.0.25 (UTC 2007-09-17)
Общее
Полное имя                               : E:\Music\Puhdys\1981 - Puhdys 10 - Schattenreiter\Puhdys - Schattenreiter - Side B.flac
Формат                                   : FLAC
Формат/Информация                        : Free Lossless Audio Codec
Размер файла                             : 809 Мбайт
Продолжительность                        : 20 м.
Режим общего битрейта                    : Переменный
Общий поток                              : 5467 Кбит/сек
Аудио
Формат                                   : FLAC
Формат/Информация                        : Free Lossless Audio Codec
Продолжительность                        : 20 м.
Вид битрейта                             : Переменный
Битрейт                                  : 5467 Кбит/сек
Каналы                                   : 2 канала
Расположение каналов                     : Front: L R
Частота                                  : 192 КГц
Битовая глубина                          : 24 бит
Размер потока                            : 809 Мбайт (100%)
Библиотека кодирования                   : libFLAC 1.0.25 (UTC 2007-09-17)
Общее
Полное имя                               : E:\Music\Puhdys\1981 - Puhdys 10 - Schattenreiter\Puhdys - Schattenreiter.cue
Размер файла                             : 868 байт
Общее
Полное имя                               : E:\Music\Puhdys\1982 - Puhdys 11 - Computer-Karriere\Puhdys - Computer-Karriere - Side 1.flac
Формат                                   : FLAC
Формат/Информация                        : Free Lossless Audio Codec
Размер файла                             : 866 Мбайт
Продолжительность                        : 21 м.
Режим общего битрейта                    : Переменный
Общий поток                              : 5688 Кбит/сек
Аудио
Формат                                   : FLAC
Формат/Информация                        : Free Lossless Audio Codec
Продолжительность                        : 21 м.
Вид битрейта                             : Переменный
Битрейт                                  : 5688 Кбит/сек
Каналы                                   : 2 канала
Расположение каналов                     : Front: L R
Частота                                  : 192 КГц
Битовая глубина                          : 24 бит
Размер потока                            : 866 Мбайт (100%)
Библиотека кодирования                   : libFLAC 1.0.25 (UTC 2007-09-17)
Общее
Полное имя                               : E:\Music\Puhdys\1982 - Puhdys 11 - Computer-Karriere\Puhdys - Computer-Karriere - Side 2.flac
Формат                                   : FLAC
Формат/Информация                        : Free Lossless Audio Codec
Размер файла                             : 833 Мбайт
Продолжительность                        : 20 м.
Режим общего битрейта                    : Переменный
Общий поток                              : 5689 Кбит/сек
Аудио
Формат                                   : FLAC
Формат/Информация                        : Free Lossless Audio Codec
Продолжительность                        : 20 м.
Вид битрейта                             : Переменный
Битрейт                                  : 5689 Кбит/сек
Каналы                                   : 2 канала
Расположение каналов                     : Front: L R
Частота                                  : 192 КГц
Битовая глубина                          : 24 бит
Размер потока                            : 833 Мбайт (100%)
Библиотека кодирования                   : libFLAC 1.0.25 (UTC 2007-09-17)
Общее
Полное имя                               : E:\Music\Puhdys\1982 - Puhdys 11 - Computer-Karriere\Puhdys - Computer-Karriere.cue
Размер файла                             : 915 байт
Общее
Полное имя                               : E:\Music\Puhdys\1984 - Puhdys 12 - Das Buch\Puhdys - Das Buch - Side 1.flac
Формат                                   : FLAC
Формат/Информация                        : Free Lossless Audio Codec
Размер файла                             : 990 Мбайт
Продолжительность                        : 24 м.
Режим общего битрейта                    : Переменный
Общий поток                              : 5717 Кбит/сек
Аудио
Формат                                   : FLAC
Формат/Информация                        : Free Lossless Audio Codec
Продолжительность                        : 24 м.
Вид битрейта                             : Переменный
Битрейт                                  : 5717 Кбит/сек
Каналы                                   : 2 канала
Расположение каналов                     : Front: L R
Частота                                  : 192 КГц
Битовая глубина                          : 24 бит
Размер потока                            : 990 Мбайт (100%)
Библиотека кодирования                   : libFLAC 1.0.25 (UTC 2007-09-17)
Общее
Полное имя                               : E:\Music\Puhdys\1984 - Puhdys 12 - Das Buch\Puhdys - Das Buch - Side 2.flac
Формат                                   : FLAC
Формат/Информация                        : Free Lossless Audio Codec
Размер файла                             : 877 Мбайт
Продолжительность                        : 21 м.
Режим общего битрейта                    : Переменный
Общий поток                              : 5733 Кбит/сек
Аудио
Формат                                   : FLAC
Формат/Информация                        : Free Lossless Audio Codec
Продолжительность                        : 21 м.
Вид битрейта                             : Переменный
Битрейт                                  : 5733 Кбит/сек
Каналы                                   : 2 канала
Расположение каналов                     : Front: L R
Частота                                  : 192 КГц
Битовая глубина                          : 24 бит
Размер потока                            : 877 Мбайт (100%)
Библиотека кодирования                   : libFLAC 1.0.25 (UTC 2007-09-17)
Общее
Полное имя                               : E:\Music\Puhdys\1984 - Puhdys 12 - Das Buch\Puhdys - Das Buch.cue
Размер файла                             : 958 байт
Общее
Полное имя                               : E:\Music\Puhdys\1986 - Puhdys 14 - Ohne Schminke\Puhdys - Ohne Schminke - Side 1.flac
Формат                                   : FLAC
Формат/Информация                        : Free Lossless Audio Codec
Размер файла                             : 818 Мбайт
Продолжительность                        : 20 м.
Режим общего битрейта                    : Переменный
Общий поток                              : 5465 Кбит/сек
Аудио
Формат                                   : FLAC
Формат/Информация                        : Free Lossless Audio Codec
Продолжительность                        : 20 м.
Вид битрейта                             : Переменный
Битрейт                                  : 5465 Кбит/сек
Каналы                                   : 2 канала
Расположение каналов                     : Front: L R
Частота                                  : 192 КГц
Битовая глубина                          : 24 бит
Размер потока                            : 818 Мбайт (100%)
Библиотека кодирования                   : libFLAC 1.0.25 (UTC 2007-09-17)
Общее
Полное имя                               : E:\Music\Puhdys\1986 - Puhdys 14 - Ohne Schminke\Puhdys - Ohne Schminke - Side 2.flac
Формат                                   : FLAC
Формат/Информация                        : Free Lossless Audio Codec
Размер файла                             : 751 Мбайт
Продолжительность                        : 19 м.
Режим общего битрейта                    : Переменный
Общий поток                              : 5517 Кбит/сек
Аудио
Формат                                   : FLAC
Формат/Информация                        : Free Lossless Audio Codec
Продолжительность                        : 19 м.
Вид битрейта                             : Переменный
Битрейт                                  : 5517 Кбит/сек
Каналы                                   : 2 канала
Расположение каналов                     : Front: L R
Частота                                  : 192 КГц
Битовая глубина                          : 24 бит
Размер потока                            : 751 Мбайт (100%)
Библиотека кодирования                   : libFLAC 1.0.25 (UTC 2007-09-17)
Общее
Полное имя                               : E:\Music\Puhdys\1986 - Puhdys 14 - Ohne Schminke\Puhdys - Ohne Schminke.cue
Размер файла                             : 889 байт

Спектрограмма:

[Цитировать]



Показать сообщения:    

Текущее время: 04-Дек 01:53

Часовой пояс: UTC + 3


Вы не можете начинать темы
Вы не можете отвечать на сообщения
Вы не можете редактировать свои сообщения
Вы не можете удалять свои сообщения
Вы не можете голосовать в опросах
Вы не можете прикреплять файлы к сообщениям
Вы не можете скачивать файлы

!ВНИМАНИЕ!
Сайт не предоставляет электронные версии произведений, а занимается лишь коллекционированием и каталогизацией ссылок, присылаемых и публикуемых на форуме нашими читателями. Если вы являетесь правообладателем какого-либо представленного материала и не желаете, чтобы ссылка на него находилась в нашем каталоге, свяжитесь с нами, и мы незамедлительно удалим ее. Файлы для обмена на трекере предоставлены пользователями сайта, и администрация не несет ответственности за их содержание. Просьба не заливать файлы, защищенные авторскими правами, а также файлы нелегального содержания!