[ Сегодня идет свободное скачивание без начисления Download ]


Статистика раздачи
Нет
 
   
 
 
 
Наутилус Помпилиус - Виниловая коллекция (3 LP) (1988-1991) - Год: 1988-1991
Жанр: Pop
Продолжительность: 01:55:51
Кодек: FLAC (image+.cue)
Битрейт: Lossless
Источник оцифровки: fontanis
Формат записи: 32/192
Формат раздачи: 24/192-Треклист:

1988 - Наутилус Помпилиус - Бригада С

01. Эта музыка будет вечной
02. Взгляд с экрана
03. Я хочу быть с тобой
04. Шар цвета Хаки
05. Скованные одной цепью (Круговая порука)
06. Я - Фантомас
07. Наследник эпохи
08. Человек в шляпе
09. Бродяга

1989 - Князь тишины

01. Скованные одной цепью
02. Князь Тишины
03. Взгляд с экрана
04. Стриптиз
06. Доктор твоего тела
07. Я хочу быть с тобой
08. Казанова
09. Шар цвета хаки
10. Прощальное письмо

1991 - Родившийся в эту ночь

01. Родившийся в эту ночь
02. Тихие игры
03. Люди
04. Последний человек на Земле
05. Бриллиантовые дороги
06. Она ждет
07. Музыка на песке
08. Черные птицы
09. Джульетта
10. Как падший ангел
-

Technical Info:

Страна-производитель винила: USA
Состояние винила: NM
Проигрыватель: Panasonic SL-H401
Картридж: AT440MLa
Фонокорректор (связка): NAD PP2 + Technics SH-AC300
ЦАП/АЦП: Creative E-MU 0202 USB

Спектрограмма:

MI

Общее
Полное имя                               : E:\Music\Наутилус Помпилиус\1987 - Наутилус - Бригада - Рок-панорама\Наутилус - Бригада С - Сторона 1.flac
Формат                                   : FLAC
Формат/Информация                        : Free Lossless Audio Codec
Размер файла                             : 790 Мбайт
Продолжительность                        : 19 м.
Режим общего битрейта                    : Переменный
Общий поток                              : 5564 Кбит/сек
Аудио
Формат                                   : FLAC
Формат/Информация                        : Free Lossless Audio Codec
Продолжительность                        : 19 м.
Вид битрейта                             : Переменный
Битрейт                                  : 5564 Кбит/сек
Каналы                                   : 2 канала
Расположение каналов                     : Front: L R
Частота                                  : 192 КГц
Битовая глубина                          : 24 бит
Размер потока                            : 790 Мбайт (100%)
Библиотека кодирования                   : libFLAC 1.0.25 (UTC 2007-09-17)
Общее
Полное имя                               : E:\Music\Наутилус Помпилиус\1987 - Наутилус - Бригада - Рок-панорама\Наутилус - Бригада С - Сторона 2.flac
Формат                                   : FLAC
Формат/Информация                        : Free Lossless Audio Codec
Размер файла                             : 701 Мбайт
Продолжительность                        : 17 м.
Режим общего битрейта                    : Переменный
Общий поток                              : 5675 Кбит/сек
Аудио
Формат                                   : FLAC
Формат/Информация                        : Free Lossless Audio Codec
Продолжительность                        : 17 м.
Вид битрейта                             : Переменный
Битрейт                                  : 5675 Кбит/сек
Каналы                                   : 2 канала
Расположение каналов                     : Front: L R
Частота                                  : 192 КГц
Битовая глубина                          : 24 бит
Размер потока                            : 701 Мбайт (100%)
Библиотека кодирования                   : libFLAC 1.0.25 (UTC 2007-09-17)
Общее
Полное имя                               : E:\Music\Наутилус Помпилиус\1987 - Наутилус - Бригада - Рок-панорама\Наутилус - Бригада С.cue
Размер файла                             : 1,18 Кбайт
Общее
Полное имя                               : E:\Music\Наутилус Помпилиус\1989 - Князь тишины\Nautilus - Князь тишины.cue
Размер файла                             : 816 байт
Общее
Полное имя                               : E:\Music\Наутилус Помпилиус\1989 - Князь тишины\Наутилус - Князь тишины - Сторона 1.flac
Формат                                   : FLAC
Формат/Информация                        : Free Lossless Audio Codec
Размер файла                             : 727 Мбайт
Продолжительность                        : 17 м.
Режим общего битрейта                    : Переменный
Общий поток                              : 5648 Кбит/сек
Аудио
Формат                                   : FLAC
Формат/Информация                        : Free Lossless Audio Codec
Продолжительность                        : 17 м.
Вид битрейта                             : Переменный
Битрейт                                  : 5648 Кбит/сек
Каналы                                   : 2 канала
Расположение каналов                     : Front: L R
Частота                                  : 192 КГц
Битовая глубина                          : 24 бит
Размер потока                            : 727 Мбайт (100%)
Библиотека кодирования                   : libFLAC 1.0.25 (UTC 2007-09-17)
Общее
Полное имя                               : E:\Music\Наутилус Помпилиус\1989 - Князь тишины\Наутилус - Князь тишины - Сторона 2.flac
Формат                                   : FLAC
Формат/Информация                        : Free Lossless Audio Codec
Размер файла                             : 832 Мбайт
Продолжительность                        : 20 м.
Режим общего битрейта                    : Переменный
Общий поток                              : 5749 Кбит/сек
Аудио
Формат                                   : FLAC
Формат/Информация                        : Free Lossless Audio Codec
Продолжительность                        : 20 м.
Вид битрейта                             : Переменный
Битрейт                                  : 5749 Кбит/сек
Каналы                                   : 2 канала
Расположение каналов                     : Front: L R
Частота                                  : 192 КГц
Битовая глубина                          : 24 бит
Размер потока                            : 832 Мбайт (100%)
Библиотека кодирования                   : libFLAC 1.0.25 (UTC 2007-09-17)
Общее
Полное имя                               : E:\Music\Наутилус Помпилиус\1991 - Родившийся в эту ночь\Nautilus Pompilius - Родившийся в эту ночь.cue
Размер файла                             : 924 байт
Общее
Полное имя                               : E:\Music\Наутилус Помпилиус\1991 - Родившийся в эту ночь\Наутилус Помпилиус - Родившийся в эту ночь - Сторона 1.flac
Формат                                   : FLAC
Формат/Информация                        : Free Lossless Audio Codec
Размер файла                             : 804 Мбайт
Продолжительность                        : 20 м.
Режим общего битрейта                    : Переменный
Общий поток                              : 5517 Кбит/сек
Аудио
Формат                                   : FLAC
Формат/Информация                        : Free Lossless Audio Codec
Продолжительность                        : 20 м.
Вид битрейта                             : Переменный
Битрейт                                  : 5517 Кбит/сек
Каналы                                   : 2 канала
Расположение каналов                     : Front: L R
Частота                                  : 192 КГц
Битовая глубина                          : 24 бит
Размер потока                            : 804 Мбайт (100%)
Библиотека кодирования                   : libFLAC 1.0.25 (UTC 2007-09-17)
Общее
Полное имя                               : E:\Music\Наутилус Помпилиус\1991 - Родившийся в эту ночь\Наутилус Помпилиус - Родившийся в эту ночь - Сторона 2.flac
Формат                                   : FLAC
Формат/Информация                        : Free Lossless Audio Codec
Размер файла                             : 800 Мбайт
Продолжительность                        : 20 м.
Режим общего битрейта                    : Переменный
Общий поток                              : 5554 Кбит/сек
Аудио
Формат                                   : FLAC
Формат/Информация                        : Free Lossless Audio Codec
Продолжительность                        : 20 м.
Вид битрейта                             : Переменный
Битрейт                                  : 5554 Кбит/сек
Каналы                                   : 2 канала
Расположение каналов                     : Front: L R
Частота                                  : 192 КГц
Битовая глубина                          : 24 бит
Размер потока                            : 800 Мбайт (100%)
Библиотека кодирования                   : libFLAC 1.0.25 (UTC 2007-09-17)

[Цитировать]



Показать сообщения:    

Текущее время: 09-Дек 18:25

Часовой пояс: UTC + 3


Вы не можете начинать темы
Вы не можете отвечать на сообщения
Вы не можете редактировать свои сообщения
Вы не можете удалять свои сообщения
Вы не можете голосовать в опросах
Вы не можете прикреплять файлы к сообщениям
Вы не можете скачивать файлы

!ВНИМАНИЕ!
Сайт не предоставляет электронные версии произведений, а занимается лишь коллекционированием и каталогизацией ссылок, присылаемых и публикуемых на форуме нашими читателями. Если вы являетесь правообладателем какого-либо представленного материала и не желаете, чтобы ссылка на него находилась в нашем каталоге, свяжитесь с нами, и мы незамедлительно удалим ее. Файлы для обмена на трекере предоставлены пользователями сайта, и администрация не несет ответственности за их содержание. Просьба не заливать файлы, защищенные авторскими правами, а также файлы нелегального содержания!