[ Today is free to download without increasing Download ]

DL-List and Torrent activity
Deep Purple - Live In California 74 (2005) DVDRip - Жанр: Hard rock
Актеры: David Coverdale (vocals), Glenn Hughes (bass), Jon Lord (keyboards), Ritchie Blackmore (guitar), Ian Paice (drums)
Концерт в Калифорнии - Deep Purple - Live In California 74, это пожалуй самый грандиозный концерт культовой группы Deep Purple. (Очень даже приличное качество)
01. Burn
02. Might Just Take Your Life
03. Lay Down Stay Down
04. Mistreated
05. Smoke On The Water
06. You Fool No One
07. Space Trucking
08. Burn (alternative version)
09. Might Just Take Your Life (alternative version)
Продолжительность: 01:25:57
Качество видео: DVDRip
Видео: DivX 5, 640x480, ~2099 kbps
Аудио: MP3, 2 ch, 192 kbps, CBR


Полное имя                               : C:\Раздача\Клипы\Deep Purple - Live In California 74.avi
Формат                                   : AVI
Формат/Информация                        : Audio Video Interleave
Профиль формата                          : OpenDML
Размер файла                             : 1,38 Гбайт
Продолжительность                        : 1 ч. 25 м.
Общий поток                              : 2306 Кбит/сек
Программа кодирования                    : Lavf51.12.1
Идентификатор                            : 0
Формат                                   : MPEG-4 Visual
Профиль формата                          : Simple@L1
Параметр BVOP формата                    : Нет
Параметр QPel формата                    : Нет
Параметр GMC формата                     : Без точки перехода
Параметр матрицы формата                 : Default (H.263)
Идентификатор кодека                     : DX50
Идентификатор кодека/Подсказка           : DivX 5
Продолжительность                        : 1 ч. 25 м.
Битрейт                                  : 2099 Кбит/сек
Ширина                                   : 640 пикселей
Высота                                   : 480 пикселей
Соотношение сторон                       : 4:3
Частота кадров                           : 25,000 кадров/сек
Цветовое пространство                    : YUV
Субдискретизация насыщенности            : 4:2:0
Битовая глубина                          : 8 бит
Тип развёртки                            : Прогрессивная
Метод сжатия                             : С потерями
Бит/(Пиксели*Кадры)                      : 0.273
Размер потока                            : 1,26 Гбайт (91%)
Библиотека кодирования                   : Lavc51.40.4
Идентификатор                            : 1
Формат                                   : MPEG Audio
Версия формата                           : Version 1
Профиль формата                          : Layer 3
Режим                                    : Joint stereo
Расширение режима                        : MS Stereo
Идентификатор кодека                     : 55
Идентификатор кодека/Подсказка           : MP3
Продолжительность                        : 1 ч. 25 м.
Вид битрейта                             : Постоянный
Битрейт                                  : 192 Кбит/сек
Каналы                                   : 2 канала
Частота                                  : 48,0 КГц
Метод сжатия                             : С потерями
Размер потока                            : 118 Мбайт (8%)
Выравнивание                             : Соединение по промежуткам
Продолжительность промежутка             : 24  мс. (0,60 видеокадр)

Дополнительные скриншоты:


Display posts:    

Current time is: 21-Oct 21:28

All times are UTC + 3

You cannot post new topics in this forum
You cannot reply to topics in this forum
You cannot edit your posts in this forum
You cannot delete your posts in this forum
You cannot vote in polls in this forum
You cannot attach files in this forum
You cannot download files in this forum

The site does not give electronic versions of products, and is engaged only in a collecting and cataloguing of the references sent and published at a forum by our readers. If you are the legal owner of any submitted material and do not wish that the reference to it was in our catalogue, contact us and we shall immediately remove her. Files for an exchange on tracker are given by users of a site, and the administration does not bear the responsibility for their maintenance. The request to not fill in the files protected by copyrights, and also files of the illegal maintenance!