[ Сегодня идет свободное скачивание без начисления Download ]


Статистика раздачи
Скачал: [ 1 ]
 
   
 
Top  
 
 
Год выпуска: 2014-2015
Страна: США
Жанр: мультфильм, фантастика, боевик, комедия, приключения, ...
Продолжительность: 00:23:37
Перевод: 1)Любительский (многоголосый закадровый) Saint Sound
Субтитры нет
Режиссер:Juan Jose Meza-Leon, Алан Ван, Майкл Чанг
Сценарий: Джошуа Стернин, Джеффри Вентимилья, Кенни Байрли, ...
Продюсер: Джошуа Стернин, Питер Хатингс, МакГрегор Миддлтон, ...
Композитор: Себастьян Эванс
В ролях: Хун Ли / Hoon Lee (Splinter, озвучка), Шон Эстин / Sean Astin (Raphael, озвучка), Джейсон Биггз / Jason Biggs (Leonardo, озвучка), Грег Сайпс / Greg Cipes (Michelangelo, озвучка), Роб Полсен / Rob Paulsen (Donatello, озвучка), Мэй Уитман / Mae Whitman (April O'Neil, озвучка), Кевин Майкл Ричардсон / Kevin Michael Richardson (The Shredder, озвучка), Нолан Норт / Nolan North (Kraang #1, озвучка)
-
Качество: WEB-DLRip
Формат: AVI
Видео кодек: XviD
Аудио кодеk: AC3
Видео: 624x352 (16:9), 23.976 fps,XviD 65, 980 Kbps
Аудио: Аудио #1: MP3, 128 Kbps, 48.0 KHz, 2 ch RUS Saint Sound
Аудио #2: MP3, 128 Kbps, 48.0 KHz, 2 ch ENG Original

МедиаИнфо

General
Complete name : E:T.M.N.T.S031.avi
Format : AVI
Format/Info : Audio Video Interleave
File size : 203 MiB
Duration : 22mn 45s
Overall bit rate : 1 250 Kbps
Writing application : VirtualDubMod 1.5.10.3 | www.virtualdub-fr.org || (build 2550/release)
Writing library : VirtualDubMod build 2550/release
Video
ID : 0
Format : MPEG-4 Visual
Format profile : Advanced [email protected]
Format settings, BVOP : 1
Format settings, QPel : No
Format settings, GMC : No warppoints
Format settings, Matrix : Custom
Codec ID : DX50
Codec ID/Hint : DivX 5
Duration : 22mn 45s
Bit rate : 980 Kbps
Width : 624 pixels
Height : 352 pixels
Display aspect ratio : 16:9
Frame rate : 23.976 fps
Color space : YUV
Chroma subsampling : 4:2:0
Bit depth : 8 bits
Scan type : Progressive
Compression mode : Lossy
Bits/(Pixel*Frame) : 0.186
Stream size : 159 MiB (78%)
Writing library : XviD 73
Audio #1
ID : 1
Format : MPEG Audio
Format version : Version 1
Format profile : Layer 3
Codec ID : 55
Codec ID/Hint : MP3
Duration : 22mn 45s
Bit rate mode : Constant
Bit rate : 128 Kbps
Channel(s) : 2 channels
Sampling rate : 48.0 KHz
Compression mode : Lossy
Stream size : 20.8 MiB (10%)
Alignment : Aligned on interleaves
Interleave, duration : 42 ms (1.00 video frame)
Interleave, preload duration : 504 ms
Writing library : LAME3.99r
Encoding settings : -m s -V 4 -q 2 -lowpass 17 -b 128
Audio #2
ID : 2
Format : MPEG Audio
Format version : Version 1
Format profile : Layer 3
Codec ID : 55
Codec ID/Hint : MP3
Duration : 22mn 45s
Bit rate mode : Constant
Bit rate : 128 Kbps
Channel(s) : 2 channels
Sampling rate : 48.0 KHz
Compression mode : Lossy
Stream size : 20.8 MiB (10%)
Alignment : Aligned on interleaves
Interleave, duration : 42 ms (1.00 video frame)
Interleave, preload duration : 504 ms
Writing library : LAME3.99r
Encoding settings : -m s -V 4 -q 2 -lowpass 17 -b 128

Скриншоты

[Цитировать]



Показать сообщения:    

Текущее время: 04-Дек 17:16

Часовой пояс: UTC + 3


Вы не можете начинать темы
Вы не можете отвечать на сообщения
Вы не можете редактировать свои сообщения
Вы не можете удалять свои сообщения
Вы не можете голосовать в опросах
Вы не можете прикреплять файлы к сообщениям
Вы не можете скачивать файлы

!ВНИМАНИЕ!
Сайт не предоставляет электронные версии произведений, а занимается лишь коллекционированием и каталогизацией ссылок, присылаемых и публикуемых на форуме нашими читателями. Если вы являетесь правообладателем какого-либо представленного материала и не желаете, чтобы ссылка на него находилась в нашем каталоге, свяжитесь с нами, и мы незамедлительно удалим ее. Файлы для обмена на трекере предоставлены пользователями сайта, и администрация не несет ответственности за их содержание. Просьба не заливать файлы, защищенные авторскими правами, а также файлы нелегального содержания!