[ Сегодня идет свободное скачивание без начисления Download ]


Статистика раздачи
Скачал: [ 1 ]
 
   
 
Top  
 
 
Приключения Джо Грязнули 2 / Joe Dirt 2: Beautiful Loser (2015) BDRip 720p Информация о фильме
Название: Приключения Джо Грязнули 2
Оригинальное название: Joe Dirt 2: Beautiful Loser
Год выхода: 2015
Жанр: комедия
Режиссер: Фред Вульф
В ролях: Дэвид Спейд, Бриттани Дэниэл, Патрик Варбертон, Марк МакГрат, Деннис Миллер, Кристофер Уокен, Тоби Бронсон, Рон Флагг, Ронда Дентс, Трэйси Вейсерт
О фильме: Когда счастливый семьянин Джо Грязнуля находит себя перенесенным в недавнее прошлое, он начинает эпическое путешествие, чтобы вернуться к своим близким в настоящее время.

Выпущено: США
Продолжительность: 01:48:27
Озвучивание: Профессиональное (многоголосное) [iTunes]
•Примечание: На американском Blu-Ray вышла нецензурированная версия, которая длиннее на ~ 2.5 мин чем прокатная в России. Поэтому около 2-х минут нецензурированых сцен остались без перевода.
Файл
Формат: MKV
Качество: BDRip 720p
Видео: MPEG-4 AVC, 5631 kb/s, 1280x720
Аудио: Russian: AC3, 384 kb/s (6 ch) / English: DTS, 1510 kb/s (6 ch)
Субтитры: отсутствуют

MI

Общее
Уникальный идентификатор : 246279151599951655297411653839780623262 (0xB947A3A77DBFF9D9B0E2CC63F7F0B39E)
Полное имя : D:загрузкиJoe Dirt 2 Beautiful Loser.2015.P.BDRip.72OP.mkv
Формат : Matroska
Версия формата : Version 2
Размер файла : 5,76 Гбайт
Продолжительность : 1 ч. 49 м.
Общий поток : 7526 Кбит/сек
Дата кодирования : UTC 2016-01-10 22:16:16
Программа кодирования : mkvmerge v8.3.0 ('Over the Horizon') 64bit
Библиотека кодирования : libebml v1.3.1 + libmatroska v1.4.2
DURATION : 01:49:32.608000000
NUMBER_OF_FRAMES : 205394
NUMBER_OF_BYTES : 315485184
_STATISTICS_WRITING_APP : mkvmerge v8.3.0 ('Over the Horizon') 64bit
_STATISTICS_WRITING_DATE_UTC : 2016-01-10 22:16:16
_STATISTICS_TAGS : BPS DURATION NUMBER_OF_FRAMES NUMBER_OF_BYTES
Видео
Идентификатор : 1
Формат : AVC
Формат/Информация : Advanced Video Codec
Профиль формата : High@L4.1
Параметр CABAC формата : Да
Параметр ReFrames формата : 5 кадров
Идентификатор кодека : V_MPEG4/ISO/AVC
Продолжительность : 1 ч. 49 м.
Битрейт : 5631 Кбит/сек
Ширина : 1280 пикселей
Высота : 720 пикселей
Соотношение сторон : 16:9
Режим частоты кадров : Постоянный
Частота кадров : 23,976 кадра/сек
Цветовое пространство : YUV
Субдискретизация насыщенности : 4:2:0
Битовая глубина : 8 бит
Тип развёртки : Прогрессивная
Бит/(Пиксели*Кадры) : 0.255
Размер потока : 4,20 Гбайт (73%)
Библиотека кодирования : x264 core 148 r2638 7599210
Настройки программы : cabac=1 / ref=5 / deblock=1:0:0 / analyse=0x3:0x133 / me=umh / subme=7 / psy=1 / psy_rd=1.00:0.00 / mixed_ref=1 / me_range=16 / chroma_me=1 / trellis=1 / 8x8dct=1 / cqm=0 / deadzone=21,11 / fast_pskip=0 / chroma_qp_offset=-2 / threads=18 / lookahead_threads=3 / sliced_threads=0 / nr=0 / decimate=1 / interlaced=0 / bluray_compat=0 / constrained_intra=0 / bframes=3 / b_pyramid=2 / b_adapt=1 / b_bias=0 / direct=1 / weightb=1 / open_gop=0 / weightp=2 / keyint=250 / keyint_min=23 / scenecut=40 / intra_refresh=0 / rc_lookahead=40 / rc=2pass / mbtree=1 / bitrate=5631 / ratetol=1.0 / qcomp=0.60 / qpmin=0 / qpmax=69 / qpstep=4 / cplxblur=20.0 / qblur=0.5 / ip_ratio=1.40 / aq=1:1.00
Язык : English
Default : Да
Forced : Нет
DURATION : 01:49:32.535000000
NUMBER_OF_FRAMES : 157583
NUMBER_OF_BYTES : 4625654668
_STATISTICS_WRITING_APP : mkvmerge v8.3.0 ('Over the Horizon') 64bit
_STATISTICS_WRITING_DATE_UTC : 2016-01-10 22:16:16
_STATISTICS_TAGS : BPS DURATION NUMBER_OF_FRAMES NUMBER_OF_BYTES
Аудио #1
Идентификатор : 2
Формат : AC-3
Формат/Информация : Audio Coding 3
Расширение режима : CM (complete main)
Параметр Endianness формата : Big
Идентификатор кодека : A_AC3
Продолжительность : 1 ч. 49 м.
Вид битрейта : Постоянный
Битрейт : 384 Кбит/сек
Каналы : 6 каналов
Расположение каналов : Front: L C R, Side: L R, LFE
Частота : 48,0 КГц
Битовая глубина : 16 бит
Метод сжатия : С потерями
Размер потока : 301 Мбайт (5%)
Язык : Russian
Default : Да
Forced : Нет
Аудио #2
Идентификатор : 3
Формат : DTS
Формат/Информация : Digital Theater Systems
Режим : 16
Параметр Endianness формата : Big
Идентификатор кодека : A_DTS
Продолжительность : 1 ч. 49 м.
Вид битрейта : Постоянный
Битрейт : 1509 Кбит/сек
Каналы : 6 каналов
Расположение каналов : Front: L C R, Side: L R, LFE
Частота : 48,0 КГц
Битовая глубина : 24 бит
Метод сжатия : С потерями
Размер потока : 1,15 Гбайт (20%)
Язык : English
Default : Нет
Forced : Нет
Меню
00:00:00.000 : en:00:00:00.000
00:06:03.446 : en:00:06:03.446
00:11:32.317 : en:00:11:32.317
00:14:33.164 : en:00:14:33.164
00:22:38.899 : en:00:22:38.899
00:32:10.220 : en:00:32:10.220
00:37:32.167 : en:00:37:32.167
00:43:09.170 : en:00:43:09.170
00:48:58.811 : en:00:48:58.811
00:56:22.129 : en:00:56:22.129
01:03:12.205 : en:01:03:12.205
01:09:58.486 : en:01:09:58.486
01:16:34.507 : en:01:16:34.507
01:23:57.658 : en:01:23:57.658
01:34:35.587 : en:01:34:35.587
01:43:17.108 : en:01:43:17.108

Скриншоты

[Цитировать]



Показать сообщения:    

Текущее время: 11-Дек 03:20

Часовой пояс: UTC + 3


Вы не можете начинать темы
Вы не можете отвечать на сообщения
Вы не можете редактировать свои сообщения
Вы не можете удалять свои сообщения
Вы не можете голосовать в опросах
Вы не можете прикреплять файлы к сообщениям
Вы не можете скачивать файлы

!ВНИМАНИЕ!
Сайт не предоставляет электронные версии произведений, а занимается лишь коллекционированием и каталогизацией ссылок, присылаемых и публикуемых на форуме нашими читателями. Если вы являетесь правообладателем какого-либо представленного материала и не желаете, чтобы ссылка на него находилась в нашем каталоге, свяжитесь с нами, и мы незамедлительно удалим ее. Файлы для обмена на трекере предоставлены пользователями сайта, и администрация не несет ответственности за их содержание. Просьба не заливать файлы, защищенные авторскими правами, а также файлы нелегального содержания!