[ Сегодня идет свободное скачивание без начисления Download ]


Статистика раздачи
Нет
 
   
 
Top  
 
 
-Круиз - Железный Рок (Remastered, 2013)-- Год | Год издания: 1987 | 2013
Страна: Russia
Жанр: Heavy Metal
Продолжительность: 00:50:48-Лейбл издания: RU РАРИТЕТ-CD
Страна-выпуска диска: Russia
Номер по каталогу: VD1
Формат: FLAC
Битрейт аудио: lossless
Тип рипа: tracks+.cue
Наличие сканов в содержимом раздачи: да
-

Трэклист


01.Рыцарь Дороги(06:41)
02.В Огонь(04:23)
03.Железный Рок(03:41)
04.Мститель(07:57)
05.Новый Мир(03:50)
06.Самый Хэви В Городе(02:54)
07.Сон В Пять Тысячелетий(04:08)
08.The Heaviest In Town (Bonus Track)(02:55)
09.Knight Of The Road (Bonus Track)(05:55)
10.Iron Rock (Bonus Track)(03:41)
11.Нечего Терять (Bonus Track)(04:48)
-

Лог создания рипа

Exact Audio Copy V1.0 beta 3 from 29. August 2011
EAC extraction logfile from 20. November 2013, 9:25
Круиз / Железный Рок
Used drive  : Optiarc DVD RW AD-7260S   Adapter: 2  ID: 1
Read mode               : Secure
Utilize accurate stream : Yes
Defeat audio cache      : Yes
Make use of C2 pointers : No
Read offset correction                      : 48
Overread into Lead-In and Lead-Out          : No
Fill up missing offset samples with silence : Yes
Delete leading and trailing silent blocks   : No
Null samples used in CRC calculations       : Yes
Used interface                              : Native Win32 interface for Win NT & 2000
Gap handling                                : Appended to previous track
Used output format              : User Defined Encoder
Selected bitrate                : 1024 kBit/s
Quality                         : High
Add ID3 tag                     : No
Command line compressor         : C:\Program Files (x86)\Exact Audio Copy\Flac\flac.exe
Additional command line options : -8 -V -T "ARTIST=%artist%" -T "TITLE=%title%" -T "ALBUM=%albumtitle%" -T "DATE=%year%" -T "TRACKNUMBER=%tracknr%" -T "GENRE=%genre%" -T "PERFORMER=%albuminterpret%" -T "COMPOSER=%composer%" %haslyrics%--tag-from-file=LYRICS="%lyricsfile%"%haslyrics% -T "ALBUMARTIST=%albumartist%" -T "DISCNUMBER=%cdnumber%" -T "TOTALDISCS=%totalcds%" -T "TOTALTRACKS=%numtracks%" -T "COMMENT=%comment%" %source% -o %dest%
TOC of the extracted CD
     Track |   Start  |  Length  | Start sector | End sector
    ---------------------------------------------------------
        1  |  0:00.00 |  6:40.10 |         0    |    30009
        2  |  6:40.10 |  4:22.65 |     30010    |    49724
        3  | 11:03.00 |  3:40.26 |     49725    |    66250
        4  | 14:43.26 |  7:56.35 |     66251    |   101985
        5  | 22:39.61 |  3:49.04 |    101986    |   119164
        6  | 26:28.65 |  2:53.47 |    119165    |   132186
        7  | 29:22.37 |  4:07.74 |    132187    |   150785
        8  | 33:30.36 |  2:54.53 |    150786    |   163888
        9  | 36:25.14 |  5:54.50 |    163889    |   190488
       10  | 42:19.64 |  3:40.06 |    190489    |   206994
       11  | 45:59.70 |  4:47.15 |    206995    |   228534
Track  1
     Filename C:\Users\Zelgadiss Graywords\Music\Круиз\2013 - Железный Рок\01 - Рыцарь Дороги.wav
     Pre-gap length  0:00:02.00
     Peak level 98.8 %
     Extraction speed 2.6 X
     Track quality 100.0 %
     Test CRC 558E63A6
     Copy CRC 558E63A6
     Track not present in AccurateRip database
     Copy OK
Track  2
     Filename C:\Users\Zelgadiss Graywords\Music\Круиз\2013 - Железный Рок\02 - В Огонь.wav
     Pre-gap length  0:00:03.00
     Peak level 98.8 %
     Extraction speed 2.8 X
     Track quality 100.0 %
     Test CRC 7FD37717
     Copy CRC 7FD37717
     Track not present in AccurateRip database
     Copy OK
Track  3
     Filename C:\Users\Zelgadiss Graywords\Music\Круиз\2013 - Железный Рок\03 - Железный Рок.wav
     Pre-gap length  0:00:03.00
     Peak level 98.8 %
     Extraction speed 3.0 X
     Track quality 100.0 %
     Test CRC 33485037
     Copy CRC 33485037
     Track not present in AccurateRip database
     Copy OK
Track  4
     Filename C:\Users\Zelgadiss Graywords\Music\Круиз\2013 - Железный Рок\04 - Мститель.wav
     Pre-gap length  0:00:03.00
     Peak level 98.8 %
     Extraction speed 3.4 X
     Track quality 100.0 %
     Test CRC 04D6C0EC
     Copy CRC 04D6C0EC
     Track not present in AccurateRip database
     Copy OK
Track  5
     Filename C:\Users\Zelgadiss Graywords\Music\Круиз\2013 - Железный Рок\05 - Новый Мир.wav
     Pre-gap length  0:00:03.00
     Peak level 98.8 %
     Extraction speed 3.1 X
     Track quality 99.9 %
     Test CRC 0D80DE80
     Copy CRC 0D80DE80
     Track not present in AccurateRip database
     Copy OK
Track  6
     Filename C:\Users\Zelgadiss Graywords\Music\Круиз\2013 - Железный Рок\06 - Самый Хэви В Городе.wav
     Pre-gap length  0:00:03.00
     Peak level 98.8 %
     Extraction speed 3.0 X
     Track quality 99.9 %
     Test CRC 389A6600
     Copy CRC 389A6600
     Track not present in AccurateRip database
     Copy OK
Track  7
     Filename C:\Users\Zelgadiss Graywords\Music\Круиз\2013 - Железный Рок\07 - Сон В Пять Тысячелетий.wav
     Pre-gap length  0:00:03.00
     Peak level 98.8 %
     Extraction speed 3.4 X
     Track quality 99.9 %
     Test CRC D735AED8
     Copy CRC D735AED8
     Track not present in AccurateRip database
     Copy OK
Track  8
     Filename C:\Users\Zelgadiss Graywords\Music\Круиз\2013 - Железный Рок\08 - The Heaviest In Town (Bonus Track).wav
     Pre-gap length  0:00:10.00
     Peak level 98.8 %
     Extraction speed 3.8 X
     Track quality 100.0 %
     Test CRC 31571208
     Copy CRC 31571208
     Track not present in AccurateRip database
     Copy OK
Track  9
     Filename C:\Users\Zelgadiss Graywords\Music\Круиз\2013 - Железный Рок\09 - Knight Of The Road (Bonus Track).wav
     Pre-gap length  0:00:03.00
     Peak level 98.8 %
     Extraction speed 4.4 X
     Track quality 100.0 %
     Test CRC 21EC2B77
     Copy CRC 21EC2B77
     Track not present in AccurateRip database
     Copy OK
Track 10
     Filename C:\Users\Zelgadiss Graywords\Music\Круиз\2013 - Железный Рок\10 - Iron Rock (Bonus Track).wav
     Pre-gap length  0:00:03.00
     Peak level 98.8 %
     Extraction speed 3.7 X
     Track quality 99.9 %
     Test CRC A66E9613
     Copy CRC A66E9613
     Track not present in AccurateRip database
     Copy OK
Track 11
     Filename C:\Users\Zelgadiss Graywords\Music\Круиз\2013 - Железный Рок\11 - Нечего Терять (Bonus Track).wav
     Pre-gap length  0:00:03.00
     Peak level 85.1 %
     Extraction speed 4.0 X
     Track quality 99.9 %
     Test CRC 7C7069F4
     Copy CRC 7C7069F4
     Track not present in AccurateRip database
     Copy OK
None of the tracks are present in the AccurateRip database
No errors occurred
End of status report
---- CUETools DB Plugin V2.1.3
[CTDB TOCID: zlkK6A0P8pTxP8vMuOoId1_qLI8-] database access error: Невозможно разрешить удаленное имя: 'db.cuetools.net'

Индексная карта (non-compilant .cue)

REM GENRE "Heavy Metal"
REM DATE 2013
REM DISCID 8D0BE70B
REM COMMENT "ExactAudioCopy v1.0b3"
PERFORMER "Круиз"
TITLE "Железный Рок"
FILE "01 - Рыцарь Дороги.flac" WAVE
  TRACK 01 AUDIO
    TITLE "Рыцарь Дороги"
    PERFORMER "Круиз"
    INDEX 01 00:00:00
  TRACK 02 AUDIO
    TITLE "В Огонь"
    PERFORMER "Круиз"
    INDEX 00 06:37:10
FILE "02 - В Огонь.flac" WAVE
    INDEX 01 00:00:00
  TRACK 03 AUDIO
    TITLE "Железный Рок"
    PERFORMER "Круиз"
    INDEX 00 04:19:65
FILE "03 - Железный Рок.flac" WAVE
    INDEX 01 00:00:00
  TRACK 04 AUDIO
    TITLE "Мститель"
    PERFORMER "Круиз"
    INDEX 00 03:37:26
FILE "04 - Мститель.flac" WAVE
    INDEX 01 00:00:00
  TRACK 05 AUDIO
    TITLE "Новый Мир"
    PERFORMER "Круиз"
    INDEX 00 07:53:35
FILE "05 - Новый Мир.flac" WAVE
    INDEX 01 00:00:00
  TRACK 06 AUDIO
    TITLE "Самый Хэви В Городе"
    PERFORMER "Круиз"
    INDEX 00 03:46:04
FILE "06 - Самый Хэви В Городе.flac" WAVE
    INDEX 01 00:00:00
  TRACK 07 AUDIO
    TITLE "Сон В Пять Тысячелетий"
    PERFORMER "Круиз"
    INDEX 00 02:50:47
FILE "07 - Сон В Пять Тысячелетий.flac" WAVE
    INDEX 01 00:00:00
  TRACK 08 AUDIO
    TITLE "The Heaviest In Town (Bonus Track)"
    PERFORMER "Круиз"
    INDEX 00 03:57:74
FILE "08 - The Heaviest In Town (Bonus Track).flac" WAVE
    INDEX 01 00:00:00
  TRACK 09 AUDIO
    TITLE "Knight Of The Road (Bonus Track)"
    PERFORMER "Круиз"
    INDEX 00 02:51:53
FILE "09 - Knight Of The Road (Bonus Track).flac" WAVE
    INDEX 01 00:00:00
  TRACK 10 AUDIO
    TITLE "Iron Rock (Bonus Track)"
    PERFORMER "Круиз"
    INDEX 00 05:51:50
FILE "10 - Iron Rock (Bonus Track).flac" WAVE
    INDEX 01 00:00:00
  TRACK 11 AUDIO
    TITLE "Нечего Терять (Bonus Track)"
    PERFORMER "Круиз"
    INDEX 00 03:37:06
FILE "11 - Нечего Терять (Bonus Track).flac" WAVE
    INDEX 01 00:00:00
-- --

[Цитировать]



Показать сообщения:    

Текущее время: 11-Дек 16:56

Часовой пояс: UTC + 3


Вы не можете начинать темы
Вы не можете отвечать на сообщения
Вы не можете редактировать свои сообщения
Вы не можете удалять свои сообщения
Вы не можете голосовать в опросах
Вы не можете прикреплять файлы к сообщениям
Вы не можете скачивать файлы

!ВНИМАНИЕ!
Сайт не предоставляет электронные версии произведений, а занимается лишь коллекционированием и каталогизацией ссылок, присылаемых и публикуемых на форуме нашими читателями. Если вы являетесь правообладателем какого-либо представленного материала и не желаете, чтобы ссылка на него находилась в нашем каталоге, свяжитесь с нами, и мы незамедлительно удалим ее. Файлы для обмена на трекере предоставлены пользователями сайта, и администрация не несет ответственности за их содержание. Просьба не заливать файлы, защищенные авторскими правами, а также файлы нелегального содержания!