[ Сегодня идет свободное скачивание без начисления Download ]


Статистика раздачи
Нет
 
   
 
Top  
 
 
10 лет спустя / 10 Years ?«У любви нет срока давности»? ? Год выпуска: 2012
? Страна: США
? Производство: Anchor Bay Films, Boss Media, Temple Hill Entertainment
? Жанр: драма, мелодрама, комедия
? Режиссер: Джеми Линден
? В ролях: Ченнинг Татум, Дженна Деван, Джастин Лонг, Макс Мингелла, Оскар Айзек, Крис Прэтт, Эри Грейнор, Дэниэл Скотт Лампкин мл., Лили Лампкин, Скотт Портер
? Перевод: Любительский (одноголосый, закадровый)
? Субтитры: Отсутствуют
? Описание: 10 лет спустя бывшие одноклассники собираются, чтобы оторваться по полной и поставить на уши весь город. Море выпивки, веселья и воспоминаний, но теперь все по-взрослому! Красавчик Джейк прибыл на вечеринку вместе с ослепительной девушкой, они — идеальная пара, и они счастливы в любви. Но этой ночью на глаза Джейку попадается его первая любовь, прошлое притягивает его и стучится в память с новой силой. Сможет ли он сделать правильный выбор? И правда ли, что у любви нет срока давности?

? Качество: HDRip
? Продолжительность: 01:40:43
? Формат: AVI
? Видео кодек: XviD
? Аудио кодек: АС3
? Видео: 720x400 (16:9), 23.976 fps, XviD, ~1489 kbps avg, 0.216 bit/pixel
? Аудио: 44.1 kHz, АС3, 6 ch, ~448.00 kbps avg - |DUB|
Премьера (мир): 14 сентября 2012
Премьера (РФ): 13 декабря 2012, «Кинопром»

Media Info

General
Complete name                    : D:\10.let.spustya.2012.L1.HDRip.1400MB.avi
Format                           : AVI
Format/Info                      : Audio Video Interleave
File size                        : 1.37 GiB
Duration                         : 1h 40mn
Overall bit rate                 : 1 946 Kbps
Writing application              : VirtualDubMod 1.5.10.2 (build 2542/release)
Writing library                  : VirtualDubMod build 2542/release
Video
ID                               : 0
Format                           : MPEG-4 Visual
Format profile                   : Advanced Simple@L5
Format settings, BVOP            : 2
Format settings, QPel            : No
Format settings, GMC             : No warppoints
Format settings, Matrix          : Default (MPEG)
Codec ID                         : XVID
Codec ID/Hint                    : XviD
Duration                         : 1h 40mn
Bit rate                         : 1 489 Kbps
Width                            : 720 pixels
Height                           : 400 pixels
Display aspect ratio             : 16:9
Frame rate                       : 23.976 fps
Color space                      : YUV
Chroma subsampling               : 4:2:0
Bit depth                        : 8 bits
Scan type                        : Interlaced
Scan order                       : Bottom Field First
Compression mode                 : Lossy
Bits/(Pixel*Frame)               : 0.216
Stream size                      : 1.05 GiB (77%)
Writing library                  : XviD 1.2.1 (UTC 2008-12-04)
Audio
ID                               : 1
Format                           : AC-3
Format/Info                      : Audio Coding 3
Codec ID                         : 2000
Duration                         : 1h 40mn
Bit rate mode                    : Constant
Bit rate                         : 448 Kbps
Channel(s)                       : 6 channels
Sampling rate                    : 44.1 KHz
Compression mode                 : Lossy
Stream size                      : 323 MiB (23%)
Alignment                        : Split accross interleaves
Interleave, duration             : 42 ms (1.00 video frame)
Interleave, preload duration     : 500 ms
[th]http://torrentsclub.org/pictures/f38a1e5486a42d12a9...777a66a.jpg[/th]
[th]http://torrentsclub.org/pictures/3c2314c2bceb1380d5...6903144.jpg[/th]
[th]http://torrentsclub.org/pictures/0b6814f0be13a2910f...b8a9d9d.jpg[/th]

[Цитировать]

Топик был перенесен из форума Новинки кинопроката в форум Драма
Henkok



Показать сообщения:    

Текущее время: 08-Дек 01:21

Часовой пояс: UTC + 3


Вы не можете начинать темы
Вы не можете отвечать на сообщения
Вы не можете редактировать свои сообщения
Вы не можете удалять свои сообщения
Вы не можете голосовать в опросах
Вы не можете прикреплять файлы к сообщениям
Вы не можете скачивать файлы

!ВНИМАНИЕ!
Сайт не предоставляет электронные версии произведений, а занимается лишь коллекционированием и каталогизацией ссылок, присылаемых и публикуемых на форуме нашими читателями. Если вы являетесь правообладателем какого-либо представленного материала и не желаете, чтобы ссылка на него находилась в нашем каталоге, свяжитесь с нами, и мы незамедлительно удалим ее. Файлы для обмена на трекере предоставлены пользователями сайта, и администрация не несет ответственности за их содержание. Просьба не заливать файлы, защищенные авторскими правами, а также файлы нелегального содержания!