[ Сегодня идет свободное скачивание без начисления Download ]


Статистика раздачи
Буду качать: [ 5 ]
Качаю: [ 2 ]
Скачал: [ 27 ]
 
   
 
Top  
 
 
HTML Academy | Интенсивный онлайн-курс «Базовый JavaScript» (2015) PCRec [H.264/720p-1080p] - Автор (режиссер): Александр Першин
Жанр: Программирование, JavaScript
Доп. материалы: Есть
Продолжительность: 19:58:58
Качество видео: PCRec
Видео: AVC/H.264, 1152x720 - 1728x1080, ~200-818 kbps
Аудио: AAC, 2 ch, 147-235 kbps, VBR
Описание:
Интенсив рассчитан на новичков без навыков программирования. Для прохождения интенсива нужны навыки HTML и CSS, для получения которых достаточно пройти бесплатные интерактивные курсы на HTML Academy.
Этот интенсив предназначен для «прокачки» верстальщика до полноценного фронтенд-специалиста, востребованного на рынке.

Программа интенсива:

Раздел 1: введение
Теория:
Инструменты работы с JavaScript: браузер, консоль, IDE.
Введение в работу с системой контроля версий.
Рабочий процесс на интенсиве.
Введение в JavaScript.
Области применения JavaScript.
Функции, типы данных, переменные.
Условные операторы, циклы.
Диалоговые окна.
Интерпретируемость языка, очередность выполнения команд.
Исключения.
Консоль.
Практика:
Клонирование репозитория.
Выбор IDE.
Настройка рабочего окружения.
Раздел 2: знакомство с DOM
Теория:
Введение в работу с DOM. Формы.
События. Модель DOM Level 0.
Cookies.
Javascript. Контекст функции.
Практика:
Валидация данных, введенных в форму.
Сохранение последних валидных данных в форме в cookies.
Раздел 3: погружение в DOM
Теория:
Продвинутая работа с DOM: создание, удаление элементов, DocumentFragment.
Введение в шаблонизацию.
Работа с изображениями.
Базовые структуры данных: массивы и объекты.
Библиотеки jQuery, lodash/underscore, mout.
Интервалы и таймауты.
Асинхронность JavaScript, очередность выполнения кода, потеря окружения.
Практика:
Создание DOM-дерева на основе заданной структуры данных.
Добавление обработчиков ошибок и таймеров на загрузку изображений.
Раздел 4: передача и обработка данных
Теория:
Введение в HTTP: методы, коды состояния, заголовки.
Введение в AJAX.
Объект XMLHttpRequest.
GlobalFetch.
jQuery.ajax.
Cross-Origin Resource Sharing (CORS).
Работа с коллекциями.
Хранение данных в localStorage.
Практика:
Загрузка структуры данных с прошлой недели с сервера по AJAX.
Фильтрация списка.
Сохранение состояния фильтров в LocalStorage.
Раздел 5: события
Теория:
Модель событий DOM Level 2.
Обработчики событий. Создание, удаление обработчиков.
Объект Event. Фазы события.
Контекст функции. Задание контекста.
Замыкания.
Делегирование событий.
Обработка событий в jQuery.
Практика:
Добавление фотогалереи на учебный проект, начало.
Раздел 6: введение в ООП
Теория:
Введение в объектно-ориентированное программирование (ООП).
Особенности ООП в JavaScript: Прототипы. Конструкторы. Цепочка прототипов. Наследование в JavaScript.
Практика:
Продолжение работы с фотогалереей.
Раздел 7: медиа и графика
Теория:
HTMLMediaElement на примере audio и video.
Графика на SVG.
Введение в графику на Canvas.
Задание:
Завершение фотогалереи, добавление видеопроигрывателя в качестве одного из слайдов.
Начало работы над интерактивным компонентом учебного проекта.
Раздел 8: работа с состояниями приложения
Теория:
Работа с адресной строкой. window.location. document.location.
Введение в работу с историей браузера. pushState/popState.
Введение в MVC. Библиотека backbone.js
Практика:
Cохранение состояния приложения в адресной строке браузера и восстановление после перезагрузки страницы.
Рефакторинг кода, согласно паттерну MVC.
Раздел 9: лучшие практики и оптимизация
Теория:
Лучшие практики JavaScript. Модульность. Паттерны проектирования.
Введение в работу с памятью, профилирование.
Задание:
Завершение работы с интерактивным компонентом.
Доведение проекта до финального состояния.

Mediainfo:

Общее
Полное имя                               : C:\[HTML Academy] Интенсивный онлайн-курс «Базовый JavaScript» - 2015\10\10.mp4
Формат                                   : MPEG-4
Профиль формата                          : Base Media / Version 2
Идентификатор кодека                     : mp42 (mp42/mp41/isom/avc1)
Размер файла                             : 162 Мбайт
Продолжительность                        : 1 ч. 4 м.
Режим общего битрейта                    : Переменный
Общий поток                              : 352 Кбит/сек
Дата кодирования                         : UTC 2015-12-24 14:38:43
Дата пометки                             : UTC 2015-12-24 14:38:43
Видео
Идентификатор                            : 1
Формат                                   : AVC
Формат/Информация                        : Advanced Video Codec
Профиль формата                          : High@L3.1
Параметр CABAC формата                   : Да
Параметр ReFrames формата                : 5 кадров
Идентификатор кодека                     : avc1
Идентификатор кодека/Информация          : Advanced Video Coding
Продолжительность                        : 1 ч. 4 м.
Битрейт                                  : 200 Кбит/сек
Ширина                                   : 1152 пикселя
Высота                                   : 720 пикселей
Соотношение сторон                       : 16:10
Режим частоты кадров                     : Постоянный
Частота кадров                           : 30,000 кадров/сек
Цветовое пространство                    : YUV
Субдискретизация насыщенности            : 4:2:0
Битовая глубина                          : 8 бит
Тип развёртки                            : Прогрессивная
Бит/(Пиксели*Кадры)                      : 0.008
Размер потока                            : 92,2 Мбайт (57%)
Библиотека кодирования                   : x264 core 148 r11 7599210
Настройки программы                      : cabac=1 / ref=5 / deblock=1:0:0 / analyse=0x3:0x113 / me=umh / subme=8 / psy=1 / psy_rd=1.00:0.00 / mixed_ref=1 / me_range=16 / chroma_me=1 / trellis=1 / 8x8dct=1 / cqm=0 / deadzone=21,11 / fast_pskip=1 / chroma_qp_offset=-2 / threads=22 / lookahead_threads=3 / sliced_threads=0 / nr=0 / decimate=1 / interlaced=0 / bluray_compat=0 / stitchable=1 / constrained_intra=0 / bframes=3 / b_pyramid=2 / b_adapt=2 / b_bias=0 / direct=3 / weightb=1 / open_gop=0 / weightp=2 / keyint=infinite / keyint_min=30 / scenecut=40 / intra_refresh=0 / rc_lookahead=50 / rc=2pass / mbtree=1 / bitrate=200 / ratetol=1.0 / qcomp=0.60 / qpmin=5 / qpmax=69 / qpstep=4 / cplxblur=20.0 / qblur=0.5 / vbv_maxrate=2750 / vbv_bufsize=7500 / nal_hrd=none / filler=0 / ip_ratio=1.40 / aq=1:1.00
Дата кодирования                         : UTC 2015-12-24 14:38:43
Дата пометки                             : UTC 2015-12-24 14:38:43
Цветовой диапазон                        : Limited
Основные цвета                           : BT.709
Характеристики трансфера                 : BT.709
Коэффициенты матрицы                     : BT.709
Аудио
Идентификатор                            : 2
Формат                                   : AAC
Формат/Информация                        : Advanced Audio Codec
Профиль формата                          : LC
Идентификатор кодека                     : 40
Продолжительность                        : 1 ч. 4 м.
Вид битрейта                             : Переменный
Битрейт                                  : 147 Кбит/сек
Каналы                                   : 2 канала
Расположение каналов                     : Front: L R
Частота                                  : 48,0 КГц
Частота кадров                           : 46,875 кадров/сек (1024 spf)
Метод сжатия                             : С потерями
Размер потока                            : 67,8 Мбайт (42%)
Дата кодирования                         : UTC 2015-12-24 14:38:43
Дата пометки                             : UTC 2015-12-24 14:38:43
Общее
Полное имя                               : C:\[HTML Academy] Интенсивный онлайн-курс «Базовый JavaScript» - 2015\5\5.mp4
Формат                                   : MPEG-4
Профиль формата                          : Base Media / Version 2
Идентификатор кодека                     : mp42 (mp42/mp41/isom/avc1)
Размер файла                             : 839 Мбайт
Продолжительность                        : 1 ч. 50 м.
Режим общего битрейта                    : Переменный
Общий поток                              : 1058 Кбит/сек
Дата кодирования                         : UTC 2015-11-25 02:21:59
Дата пометки                             : UTC 2015-11-25 02:21:59
Видео
Идентификатор                            : 1
Формат                                   : AVC
Формат/Информация                        : Advanced Video Codec
Профиль формата                          : High@L4
Параметр CABAC формата                   : Да
Параметр ReFrames формата                : 4 кадра
Идентификатор кодека                     : avc1
Идентификатор кодека/Информация          : Advanced Video Coding
Продолжительность                        : 1 ч. 50 м.
Битрейт                                  : 818 Кбит/сек
Ширина                                   : 1728 пикселей
Высота                                   : 1080 пикселей
Соотношение сторон                       : 16:10
Режим частоты кадров                     : Постоянный
Частота кадров                           : 30,000 кадров/сек
Цветовое пространство                    : YUV
Субдискретизация насыщенности            : 4:2:0
Битовая глубина                          : 8 бит
Тип развёртки                            : Прогрессивная
Бит/(Пиксели*Кадры)                      : 0.015
Размер потока                            : 649 Мбайт (77%)
Библиотека кодирования                   : x264 core 148 r11 73ae2d1
Настройки программы                      : cabac=1 / ref=4 / deblock=1:0:0 / analyse=0x3:0x113 / me=umh / subme=8 / psy=1 / psy_rd=1.00:0.00 / mixed_ref=1 / me_range=16 / chroma_me=1 / trellis=1 / 8x8dct=1 / cqm=0 / deadzone=21,11 / fast_pskip=1 / chroma_qp_offset=-2 / threads=34 / lookahead_threads=5 / sliced_threads=0 / nr=0 / decimate=1 / interlaced=0 / bluray_compat=0 / stitchable=1 / constrained_intra=0 / bframes=3 / b_pyramid=2 / b_adapt=2 / b_bias=0 / direct=3 / weightb=1 / open_gop=0 / weightp=2 / keyint=infinite / keyint_min=30 / scenecut=40 / intra_refresh=0 / rc_lookahead=50 / rc=crf / mbtree=1 / crf=20.0 / qcomp=0.60 / qpmin=5 / qpmax=69 / qpstep=4 / vbv_maxrate=4950 / vbv_bufsize=13500 / crf_max=0.0 / nal_hrd=none / filler=0 / ip_ratio=1.40 / aq=1:1.00
Дата кодирования                         : UTC 2015-11-25 02:21:59
Дата пометки                             : UTC 2015-11-25 02:21:59
Цветовой диапазон                        : Limited
Основные цвета                           : BT.709
Характеристики трансфера                 : BT.709
Коэффициенты матрицы                     : BT.709
Аудио
Идентификатор                            : 2
Формат                                   : AAC
Формат/Информация                        : Advanced Audio Codec
Профиль формата                          : LC
Идентификатор кодека                     : 40
Продолжительность                        : 1 ч. 50 м.
Вид битрейта                             : Переменный
Битрейт                                  : 235 Кбит/сек
Каналы                                   : 2 канала
Расположение каналов                     : Front: L R
Частота                                  : 48,0 КГц
Частота кадров                           : 46,875 кадров/сек (1024 spf)
Метод сжатия                             : С потерями
Размер потока                            : 186 Мбайт (22%)
Дата кодирования                         : UTC 2015-11-25 02:21:59
Дата пометки                             : UTC 2015-11-25 02:21:59
Скриншоты:

[Цитировать]



Показать сообщения:    

Текущее время: 24-Мар 18:18

Часовой пояс: UTC + 6


Вы не можете начинать темы
Вы не можете отвечать на сообщения
Вы не можете редактировать свои сообщения
Вы не можете удалять свои сообщения
Вы не можете голосовать в опросах
Вы не можете прикреплять файлы к сообщениям
Вы не можете скачивать файлы

!ВНИМАНИЕ!
Сайт не предоставляет электронные версии произведений, а занимается лишь коллекционированием и каталогизацией ссылок, присылаемых и публикуемых на форуме нашими читателями. Если вы являетесь правообладателем какого-либо представленного материала и не желаете, чтобы ссылка на него находилась в нашем каталоге, свяжитесь с нами, и мы незамедлительно удалим ее. Файлы для обмена на трекере предоставлены пользователями сайта, и администрация не несет ответственности за их содержание. Просьба не заливать файлы, защищенные авторскими правами, а также файлы нелегального содержания!