[ Сегодня идет свободное скачивание без начисления Download ]


Статистика раздачи
Нет
 
   
 
Top  
 
 
Стеклянный подбородок / Glass Chin (2014) WEB-DL 720 Информация о фильме
Название: Стеклянный подбородок
Оригинальное название: Glass Chin
Год выхода: 2014
Жанр: триллер, драма
Режиссер: Ноа Бушел
В ролях: Дэвид Джохансен, Кори Столл, Билли Крудап, Келли Линч, Кэтрин Уотерстон, Элизабет Родригес, Марин Айрлэнд, Майкл Чернус, Брендан Секстон III, Джон Вентимилья
О фильме: В центре истории окажется бывший чемпион по боксу, который находится перед тяжким, для него выбором: либо дружба, либо его амбиции, и все это на фоне обвинения главного героя в убийстве.

Выпущено: США / ONEZERO Films
Продолжительность: 01:27:44
Озвучивание: Любительское (двухголосое) [Parovoz Production]
Файл
Формат: MKV
Качество: WEB-DL 720p
Видео: 3966 kb/s, 1280x688
Аудио: Russian: AC3, 128 kb/s (2 ch) / English: AC3, 384 kb/s (6 ch)
Субтитры: English

MI

Format : Matroska
Format version : Version 2
File size : 2.80 GiB
Duration : 1h 27mn
Overall bit rate : 4 568 Kbps
Encoded date : UTC 2016-01-13 00:26:47
Writing application : mkvmerge v7.8.0 ('River Man') 32bit built on Apr 3 2015 12:11:22
Writing library : libebml v1.3.1 + libmatroska v1.4.2
Video
ID : 1
Format : AVC
Format/Info : Advanced Video Codec
Format profile : High@L3.1
Format settings, CABAC : No
Format settings, ReFrames : 2 frames
Codec ID : V_MPEG4/ISO/AVC
Duration : 1h 27mn
Bit rate : 3 966 Kbps
Width : 1 280 pixels
Height : 688 pixels
Display aspect ratio : 1.85:1
Frame rate mode : Constant
Frame rate : 23.976 fps
Color space : YUV
Chroma subsampling : 4:2:0
Bit depth : 8 bits
Scan type : Progressive
Bits/(Pixel*Frame) : 0.188
Stream size : 2.43 GiB (87%)
Language : English
Default : Yes
Forced : No
Color range : Limited
Color primaries : BT.709
Transfer characteristics : BT.709
Matrix coefficients : BT.709
Audio #1
ID : 2
Format : AC-3
Format/Info : Audio Coding 3
Mode extension : CM (complete main)
Format settings, Endianness : Big
Codec ID : A_AC3
Duration : 1h 27mn
Bit rate mode : Constant
Bit rate : 128 Kbps
Channel(s) : 2 channels
Channel positions : Front: L R
Sampling rate : 48.0 KHz
Bit depth : 16 bits
Compression mode : Lossy
Stream size : 80.3 MiB (3%)
Language : Russian
Default : Yes
Forced : No
Audio #2
ID : 3
Format : AC-3
Format/Info : Audio Coding 3
Mode extension : CM (complete main)
Format settings, Endianness : Big
Codec ID : A_AC3
Duration : 1h 27mn
Bit rate mode : Constant
Bit rate : 384 Kbps
Channel(s) : 6 channels
Channel positions : Front: L C R, Side: L R, LFE
Sampling rate : 48.0 KHz
Bit depth : 16 bits
Compression mode : Lossy
Stream size : 241 MiB (8%)
Language : English
Default : No
Forced : No
Text
ID : 4
Format : UTF-8
Codec ID : S_TEXT/UTF8
Codec ID/Info : UTF-8 Plain Text
Language : English
Default : No
Forced : No
Menu
00:00:00.000 : en:Chapter 01
00:08:57.000 : en:Chapter 02
00:17:56.000 : en:Chapter 03
00:26:48.000 : en:Chapter 04
00:34:48.000 : en:Chapter 05
00:45:51.000 : en:Chapter 06
00:54:41.000 : en:Chapter 07
01:03:27.000 : en:Chapter 08
01:14:24.000 : en:Chapter 09
01:24:31.000 : en:Chapter 10

Скриншоты

[Цитировать]



Показать сообщения:    

Текущее время: 11-Дек 07:17

Часовой пояс: UTC + 3


Вы не можете начинать темы
Вы не можете отвечать на сообщения
Вы не можете редактировать свои сообщения
Вы не можете удалять свои сообщения
Вы не можете голосовать в опросах
Вы не можете прикреплять файлы к сообщениям
Вы не можете скачивать файлы

!ВНИМАНИЕ!
Сайт не предоставляет электронные версии произведений, а занимается лишь коллекционированием и каталогизацией ссылок, присылаемых и публикуемых на форуме нашими читателями. Если вы являетесь правообладателем какого-либо представленного материала и не желаете, чтобы ссылка на него находилась в нашем каталоге, свяжитесь с нами, и мы незамедлительно удалим ее. Файлы для обмена на трекере предоставлены пользователями сайта, и администрация не несет ответственности за их содержание. Просьба не заливать файлы, защищенные авторскими правами, а также файлы нелегального содержания!