[ Сегодня идет свободное скачивание без начисления Download ]


Статистика раздачи
Нет
 
   
 
Top  
 
 
Полицейская история 2 / Ging chaat goo si juk jaap Год выпуска: 1988
Страна: Гонконг
Производство: Golden Way Films Ltd.
Жанр: Боевик, триллер, комедия, криминал
Режиссер: Джеки Чан
В ролях: Джеки Чан, Мэгги Чунг, Деннис Чан, Джон Чунг, Чарли Чо, Юен Чор, Чи Фай Чан
Перевод: Любительский (одноголосый) + Оригинал
Субтитры: Русские, Английские
Описание: Hа свободу выходит Босс наркомафии Ку, наркоторговля не остановлена, и первая его мысль после заключения - отомстить полицейскому Кевину Ченгу (Джеки Чан), упрятавшему его за решетку. Ку нанимает киллера, который, впрочем, явно не в себе... Тем временем, группа изощренных террористов пугает население серией взрывов в людных местах, и вымогает 10 миллионов долларов у одной торговой фирмы. Справиться с этой ситуацией и спасти любимую девушку под силу только полицейскому Кевину Ченгу.

Релиз от:
Качество: BDRip 1080p
Продолжительность: 02:01:25
Формат: MKV
Главы: Есть
Видео кодек: AVC [email protected]
Аудио кодек: AC3
Видео: 1920x816 (2.35:1), 23.976 fps, 6157 kbps, 0,164 Bits/Pixel
Аудио №1: 48 kHz, AC3, 2 ch, ~192 kbps | (Rus)
Аудио №2: 48 kHz, AC3, 6 ch, ~448 kbps | (Chi)

Media Info

General
Unique ID : 193112072044106506122079695070932389562 (0x9148083F639C6E50BBC83B25012E4EBA)
Format : Matroska
Format version : Version 2
File size : 5.77 GiB
Duration : 2h 1mn
Overall bit rate : 6 798 Kbps
Movie name : Полицейская история 2 (1988) BDRip (1080p)
Encoded date : UTC 2012-10-28 14:34:10
Writing application : mkvmerge v5.8.0 ('No Sleep / Pillow') built on Sep 2 2012 15:37:04
Writing library : libebml v1.2.3 + libmatroska v1.3.0
Video
ID : 1
Format : AVC
Format/Info : Advanced Video Codec
Format profile : [email protected]
Format settings, CABAC : Yes
Format settings, ReFrames : 5 frames
Codec ID : V_MPEG4/ISO/AVC
Duration : 2h 1mn
Bit rate : 6 157 Kbps
Width : 1 920 pixels
Height : 816 pixels
Display aspect ratio : 2.35:1
Frame rate mode : Constant
Frame rate : 23.976 fps
Color space : YUV
Chroma subsampling : 4:2:0
Bit depth : 8 bits
Scan type : Progressive
Bits/(Pixel*Frame) : 0.164
Stream size : 5.11 GiB (89%)
Title : Release by Alex260680
Writing library : x264 core 128 r2216M 198a7ea
Encoding settings : cabac=1 / ref=5 / deblock=1:0:0 / analyse=0x3:0x133 / me=umh / subme=11 / psy=1 / psy_rd=1.00:0.10 / mixed_ref=1 / me_range=48 / chroma_me=1 / trellis=2 / 8x8dct=1 / cqm=0 / deadzone=21,11 / fast_pskip=0 / chroma_qp_offset=-3 / threads=8 / lookahead_threads=1 / sliced_threads=0 / nr=0 / decimate=0 / interlaced=0 / bluray_compat=0 / constrained_intra=0 / bframes=5 / b_pyramid=2 / b_adapt=2 / b_bias=0 / direct=3 / weightb=1 / open_gop=0 / weightp=2 / keyint=240 / keyint_min=23 / scenecut=40 / intra_refresh=0 / rc=2pass / mbtree=0 / bitrate=6157 / ratetol=1.0 / qcomp=0.60 / qpmin=0 / qpmax=69 / qpstep=4 / cplxblur=20.0 / qblur=0.5 / ip_ratio=1.40 / pb_ratio=1.30 / aq=1:0.80
Language : Chinese
Default : Yes
Forced : No
Audio #1
ID : 2
Format : AC-3
Format/Info : Audio Coding 3
Mode extension : CM (complete main)
Format settings, Endianness : Big
Codec ID : A_AC3
Duration : 2h 1mn
Bit rate mode : Constant
Bit rate : 192 Kbps
Channel(s) : 2 channels
Channel positions : Front: L R
Sampling rate : 48.0 KHz
Bit depth : 16 bits
Compression mode : Lossy
Delay relative to video : 2s 100ms
Stream size : 167 MiB (3%)
Title : AVO
Language : Russian
Default : Yes
Forced : No
Audio #2
ID : 3
Format : AC-3
Format/Info : Audio Coding 3
Mode extension : CM (complete main)
Format settings, Endianness : Big
Codec ID : A_AC3
Duration : 2h 1mn
Bit rate mode : Constant
Bit rate : 448 Kbps
Channel(s) : 6 channels
Channel positions : Front: L C R, Side: L R, LFE
Sampling rate : 48.0 KHz
Bit depth : 16 bits
Compression mode : Lossy
Stream size : 389 MiB (7%)
Title : Original
Language : Chinese
Default : No
Forced : No
Text #1
ID : 4
Format : UTF-8
Codec ID : S_TEXT/UTF8
Codec ID/Info : UTF-8 Plain Text
Language : Russian
Default : No
Forced : No
Text #2
ID : 5
Format : UTF-8
Codec ID : S_TEXT/UTF8
Codec ID/Info : UTF-8 Plain Text
Language : English
Default : No
Forced : No
Menu
00:00:00.000 : en:Chapter1
00:02:29.065 : en:Chapter2
00:05:54.937 : en:Chapter3
00:09:49.672 : en:Chapter4
00:15:25.966 : en:Chapter5
00:21:01.718 : en:Chapter6
00:25:22.437 : en:Chapter7
00:29:56.461 : en:Chapter8
00:34:28.107 : en:Chapter9
00:39:35.039 : en:Chapter10
00:43:16.260 : en:Chapter11
00:49:15.077 : en:Chapter12
00:52:39.781 : en:Chapter13
00:55:35.415 : en:Chapter14
01:02:27.076 : en:Chapter15
01:05:18.998 : en:Chapter16
01:13:18.602 : en:Chapter17
01:31:19.223 : en:Chapter18
01:50:30.540 : en:Chapter19
01:58:32.063 : en:Chapter20
02:01:24.860 : en:Chapter21

Скриншоты

[Цитировать]



Показать сообщения:    

Текущее время: 06-Дек 05:57

Часовой пояс: UTC + 3


Вы не можете начинать темы
Вы не можете отвечать на сообщения
Вы не можете редактировать свои сообщения
Вы не можете удалять свои сообщения
Вы не можете голосовать в опросах
Вы не можете прикреплять файлы к сообщениям
Вы не можете скачивать файлы

!ВНИМАНИЕ!
Сайт не предоставляет электронные версии произведений, а занимается лишь коллекционированием и каталогизацией ссылок, присылаемых и публикуемых на форуме нашими читателями. Если вы являетесь правообладателем какого-либо представленного материала и не желаете, чтобы ссылка на него находилась в нашем каталоге, свяжитесь с нами, и мы незамедлительно удалим ее. Файлы для обмена на трекере предоставлены пользователями сайта, и администрация не несет ответственности за их содержание. Просьба не заливать файлы, защищенные авторскими правами, а также файлы нелегального содержания!