[ Сегодня идет свободное скачивание без начисления Download ]


Статистика раздачи
Нет
 
   
 
Top  
 
 
Отцы и дочери / Fathers and Daughters (2015) BDRip 1080p Производство: США, Италия
Жанр: Драма
Год выхода: 2015
Режиссер: Габриэле Муччино
В ролях: Аманда Сайфред, Джейн Фонда, Аарон Пол, Дайан Крюгер, Расселл Кроу, Райан Игголд, Брюс Гринвуд, Куавенжане Уоллис, Джанет МакТир, Октавия Спенсер
Описание:
История отца и дочери, живущих на Манхэттене. В прошлом персонаж Кроу — знаменитый писатель, вдовец и страдающий от психических расстройств человек — пытается вырастить 5-летнюю дочь и буквально не сойти с ума, ну а в настоящем, героиня Сейфрид, уже повзрослевшая дочка сражается с собственными демонами.

Продолжительность: 01:56:33
Качество видео: BDRip (1080p)
Перевод: Любительский двухголосый (Parovoz Production)
Язык субтитров: Русский
Вид субтитров: Вшитые (отключаемые)
Видео: AVC, 1920x800 (2.40:1), 24.000 fps, 10.4 Mbps (0.267 bit/pixel)
Аудио #1: AC-3, 48.0 KHz, 2 ch, 192 Kbps, CBR | Русский
Аудио #2: DTS, 48.0 KHz, 6 ch, 1 510 Kbps, CBR | Английский
Сэмпл
Присутствуют голосовые вставки рекламы.

MI

Общее
Уникальный идентификатор : 204208322619599034005584937551166483066 (0x99A117A3C40A39DA8CC250318E44AA7A)
Полное имя : D:Отцы и дочериOtcy i docheri 2015 BDRip 1080p.mkv
Формат : Matroska
Версия формата : Version 4 / Version 2
Размер файла : 9,58 Гбайт
Продолжительность : 1 ч. 56 м.
Общий поток : 11,8 Мбит/сек
Дата кодирования : UTC 2016-01-15 06:38:00
Программа кодирования : mkvmerge v8.7.0 ('All of the above') 64bit
Библиотека кодирования : libebml v1.3.3 + libmatroska v1.4.4
DURATION : 01:56:32.959000000
NUMBER_OF_FRAMES : 167831
NUMBER_OF_BYTES : 8795478172
_STATISTICS_WRITING_APP : mkvmerge v8.7.0 ('All of the above') 64bit
_STATISTICS_WRITING_DATE_UTC : 2016-01-15 06:38:00
_STATISTICS_TAGS : BPS DURATION NUMBER_OF_FRAMES NUMBER_OF_BYTES
Видео
Идентификатор : 1
Формат : AVC
Формат/Информация : Advanced Video Codec
Профиль формата : [email protected]
Параметр CABAC формата : Да
Параметр ReFrames формата : 4 кадра
Идентификатор кодека : V_MPEG4/ISO/AVC
Продолжительность : 1 ч. 56 м.
Битрейт : 9830 Кбит/сек
Номинальный битрейт : 10,4 Мбит/сек
Ширина : 1920 пикселей
Высота : 800 пикселей
Соотношение сторон : 2,40:1
Режим частоты кадров : Переменный
Частота кадров : 24,000 кадра/сек
Цветовое пространство : YUV
Субдискретизация насыщенности : 4:2:0
Битовая глубина : 8 бит
Тип развёртки : Прогрессивная
Бит/(Пиксели*Кадры) : 0.267
Размер потока : 8,00 Гбайт (84%)
Библиотека кодирования : x264 core 130 r2273 b3065e6
Настройки программы : cabac=1 / ref=1 / deblock=1:0:0 / analyse=0x3:0x113 / me=hex / subme=2 / psy=1 / psy_rd=1.00:0.00 / mixed_ref=0 / me_range=16 / chroma_me=1 / trellis=0 / 8x8dct=1 / cqm=0 / deadzone=21,11 / fast_pskip=1 / chroma_qp_offset=0 / threads=6 / lookahead_threads=2 / sliced_threads=0 / nr=0 / decimate=1 / interlaced=0 / bluray_compat=0 / constrained_intra=0 / bframes=3 / b_pyramid=2 / b_adapt=1 / b_bias=0 / direct=1 / weightb=1 / open_gop=0 / weightp=1 / keyint=240 / keyint_min=24 / scenecut=40 / intra_refresh=0 / rc_lookahead=10 / rc=abr / mbtree=1 / bitrate=10407 / ratetol=1.0 / qcomp=0.60 / qpmin=0 / qpmax=69 / qpstep=4 / vbv_maxrate=62500 / vbv_bufsize=78125 / nal_hrd=none / ip_ratio=1.40 / aq=1:1.00
Язык : English
Default : Да
Forced : Нет
Основные цвета : BT.709-5, BT.1361, IEC 61966-2-4, SMPTE RP177
Характеристики трансфера : BT.709-5, BT.1361
Коэффициенты матрицы : BT.709-5, BT.1361, IEC 61966-2-4 709, SMPTE RP177
Аудио #1
Идентификатор : 2
Формат : AC-3
Формат/Информация : Audio Coding 3
Расширение режима : CM (complete main)
Идентификатор кодека : A_AC3
Продолжительность : 1 ч. 56 м.
Вид битрейта : Постоянный
Битрейт : 192 Кбит/сек
Каналы : 2 канала
Расположение каналов : Front: L R
Частота : 48,0 КГц
Битовая глубина : 16 бит
Метод сжатия : С потерями
Размер потока : 160 Мбайт (2%)
Язык : Russian
Default : Да
Forced : Нет
Аудио #2
Идентификатор : 3
Формат : DTS
Формат/Информация : Digital Theater Systems
Идентификатор кодека : A_DTS
Продолжительность : 1 ч. 56 м.
Вид битрейта : Постоянный
Битрейт : 1510 Кбит/сек
Каналы : 6 каналов
Расположение каналов : Front: L C R, Side: L R, LFE
Частота : 48,0 КГц
Битовая глубина : 24 бит
Метод сжатия : С потерями
Размер потока : 1,23 Гбайт (13%)
Язык : English
Default : Нет
Forced : Нет
Текст
Идентификатор : 4
Формат : UTF-8
Идентификатор кодека : S_TEXT/UTF8
Идентификатор кодека/Информация : UTF-8 Plain Text
Язык : Russian
Default : Да
Forced : Да
Меню
00:00:00.000 : en:00:00:00.000
00:07:24.375 : en:00:07:24.375
00:16:56.167 : en:00:16:56.167
00:22:22.250 : en:00:22:22.250
00:27:17.375 : en:00:27:17.375
00:32:08.083 : en:00:32:08.083
00:38:12.458 : en:00:38:12.458
00:45:13.125 : en:00:45:13.125
00:57:18.750 : en:00:57:18.750
01:02:31.958 : en:01:02:31.958
01:14:24.708 : en:01:14:24.708
01:22:30.125 : en:01:22:30.125
01:29:07.708 : en:01:29:07.708
01:37:38.500 : en:01:37:38.500
01:42:55.792 : en:01:42:55.792
01:50:05.458 : en:01:50:05.458

Скриншоты

[Цитировать]



Показать сообщения:    

Текущее время: 04-Дек 17:20

Часовой пояс: UTC + 3


Вы не можете начинать темы
Вы не можете отвечать на сообщения
Вы не можете редактировать свои сообщения
Вы не можете удалять свои сообщения
Вы не можете голосовать в опросах
Вы не можете прикреплять файлы к сообщениям
Вы не можете скачивать файлы

!ВНИМАНИЕ!
Сайт не предоставляет электронные версии произведений, а занимается лишь коллекционированием и каталогизацией ссылок, присылаемых и публикуемых на форуме нашими читателями. Если вы являетесь правообладателем какого-либо представленного материала и не желаете, чтобы ссылка на него находилась в нашем каталоге, свяжитесь с нами, и мы незамедлительно удалим ее. Файлы для обмена на трекере предоставлены пользователями сайта, и администрация не несет ответственности за их содержание. Просьба не заливать файлы, защищенные авторскими правами, а также файлы нелегального содержания!