[ Today is free to download without increasing Download ]

DL-List and Torrent activity
Восстание андроидов / Android Insurrection
Страна: США
Жанр: фантастика, боевик
Год выпуска: 2012
Производство: Pandora Machine-Режиссер: Эндрю Беллвар
В ролях: Джуанита Ариас , Нат Кассиди , Joe Chapman , Ребекка Куш , Beckett Lee , Дэвид Йен Ли , Вирджиния Логан , Sarah-Do Osborne , Томас Роуэн , Jeff Wills-Перевод: Профессиональный (многоголосый, закадровый) [лицензия]
Субтитры: нет-Описание: Далекое будущее. Высокоразвитая цивилизация землян осваивает другие планеты с помощью роботов-андроидов. Неожиданно они восстают против землян. Для подавления восстания на планету направлена хорошо вооруженная группа специального назначения. Руководит группой майор Фокс. Но проблема оказалась серьезнее, чем ожидалось - андроиды обрели самосознание и могут ремонтировать друг друга. К счастью, несколько роботов все еще лояльны к землянам...- -Продолжительность: 01:18:18
Качество: DVDRip (Исходник DVD5 R5)-Формат: AVI
Видео кодек: XviD
Аудио кодек: AC3
Видео: XviD, 720x304 (2.35:1), 2045 kbps, 25 fps, 0,374 bpp
Аудио: AC3 / 5.1 / 48 kHz / 448 kbps / 16 bit

Media Info

Media Info

Complete name : D:\Vosstanie.androidov.2012.P_DVDRip.avi
Format : AVI
Format/Info : Audio Video Interleave
File size : 1.37 GiB
Duration : 1h 18mn
Overall bit rate : 2 503 Kbps
Movie name : Vosstanie.androidov.2012.P.DVDRip.IRONCLUB
Director : IRONCLUB
Writing application : VirtualDubMod | www.virtualdub-fr.org || (build 2550/release)
Original source form/Name : Movie
Copyright : http://ironclub.tv/
ID : 0
Format : MPEG-4 Visual
Format profile : Advanced Simple@L5
Format settings, BVOP : 2
Format settings, QPel : No
Format settings, GMC : No warppoints
Format settings, Matrix : Custom
Codec ID : XVID
Codec ID/Hint : XviD
Duration : 1h 18mn
Bit rate : 2 046 Kbps
Width : 720 pixels
Height : 304 pixels
Display aspect ratio : 2.35:1
Frame rate : 25.000 fps
Color space : YUV
Chroma subsampling : 4:2:0
Bit depth : 8 bits
Scan type : Progressive
Compression mode : Lossy
Bits/(Pixel*Frame) : 0.374
Stream size : 1.12 GiB (82%)
Writing library : XviD 1.2.1 (UTC 2008-12-04)
ID : 1
Format : AC-3
Format/Info : Audio Coding 3
Mode extension : CM (complete main)
Codec ID : 2000
Duration : 1h 18mn
Bit rate mode : Constant
Bit rate : 448 Kbps
Channel(s) : 6 channels
Channel positions : Front: L C R, Side: L R, LFE
Sampling rate : 48.0 KHz
Bit depth : 16 bits
Compression mode : Lossy
Stream size : 251 MiB (18%)
Alignment : Split accross interleaves
Interleave, duration : 40 ms (1.00 video frame)
Interleave, preload duration : 500 ms


Display posts:    

Current time is: 22-Oct 20:56

All times are UTC + 3

You cannot post new topics in this forum
You cannot reply to topics in this forum
You cannot edit your posts in this forum
You cannot delete your posts in this forum
You cannot vote in polls in this forum
You cannot attach files in this forum
You cannot download files in this forum

The site does not give electronic versions of products, and is engaged only in a collecting and cataloguing of the references sent and published at a forum by our readers. If you are the legal owner of any submitted material and do not wish that the reference to it was in our catalogue, contact us and we shall immediately remove her. Files for an exchange on tracker are given by users of a site, and the administration does not bear the responsibility for their maintenance. The request to not fill in the files protected by copyrights, and also files of the illegal maintenance!