[ Сегодня идет свободное скачивание без начисления Download ]


Статистика раздачи
Нет
 
   
 
Top  
 
 
---Утешение / Solace--- Информация о фильме
Название: Утешение
Оригинальное название: Solace
Год выхода: 2015
Жанр: Триллер, детектив
Режиссер: Афонсо Пойарт
В ролях: Джеффри Дин Морган, Колин Фаррелл, Энтони Хопкинс, Эбби Корниш, Марли Шелтон, Джанин Тернер, Ксандер Беркли, Кенни Джонсон, Хосе Пабло Кантильо, Джошуа Клоуз
О фильме:
Напарники, Джо и Кэтрин, детективы из ФБР расследуют череду загадочных убийств. Все преступления объединяет нечто сверхъестественное — серийный убийца всегда на шаг впереди лучших сыщиков. Тогда на помощь правосудию приходит отставной аналитик спецслужб доктор Джон Кленси. Его исключительная интуиция и интеллект могут помочь поймать убийцу, но вскоре Джон понимает — его соперник значительно превосходит его в способностях.
-Страна: [США
Студия: Eden Rock Media, FilmNation Entertainment, Flynn Picture Company
Продолжительность: 01:41:12
Перевод: Любительский (двухголосый, закадровый)-Файл
Формат: MKV
Качество: BDRip \(1080p\)
Видео: 1920x800 ~ 9314 kbps, MPEG-4 AVC, 23,976 fps
Аудио#1: Russian: 48 kHz, AC3, 3/2 (L,C,R,l,r) + LFE ch, ~192 kbps | Двухголосый закадровый
Аудио#2: English: 48 kHz, DTS, 3/2 (L,C,R,l,r) + LFE ch, ~1510 kbps | Оригинал
Субтитры: Английские
Навигация по главам: Есть

Скриншоты

MediaInfo

Общее
Уникальный идентификатор : 178192165313751488708098327999526963463 (0x860E900D52BB53CA89D80F04F3D78907)
Полное имя : NASMediaУтешение.2015.L2.BDRip.1080p.mkv
Формат : Matroska
Версия формата : Version 4 / Version 2
Размер файла : 7,79 Гбайт
Продолжительность : 1 ч. 41 м.
Общий поток : 11,0 Мбит/сек
Название фильма : Утешение.2015.Rip_by_grab777
Дата кодирования : UTC 2016-01-12 06:15:56 / UTC 2016-01-11 19:28:51
Программа кодирования : mkvmerge v8.8.0 ('Wind at my back') 64bit
Библиотека кодирования : libebml v1.3.3 + libmatroska v1.4.4 / XviD4PSP 6.0 / 54.29.105
Видео
Идентификатор : 1
Формат : AVC
Формат/Информация : Advanced Video Codec
Профиль формата : High@L4.1
Параметр CABAC формата : Да
Параметр ReFrames формата : 5 кадров
Идентификатор кодека : V_MPEG4/ISO/AVC
Продолжительность : 1 ч. 41 м.
Битрейт : 9314 Кбит/сек
Ширина : 1920 пикселей
Высота : 800 пикселей
Соотношение сторон : 2,40:1
Режим частоты кадров : Постоянный
Частота кадров : 23,976 (24000/1001) кадра/сек
Цветовое пространство : YUV
Субдискретизация насыщенности : 4:2:0
Битовая глубина : 8 бит
Тип развёртки : Прогрессивная
Бит/(Пиксели*Кадры) : 0.253
Размер потока : 6,43 Гбайт (83%)
Библиотека кодирования : x264 core 148 r2638 7599210
Настройки программы : cabac=1 / ref=5 / deblock=1:-3:-3 / analyse=0x3:0x113 / me=umh / subme=8 / psy=1 / psy_rd=1.00:0.00 / mixed_ref=1 / me_range=32 / chroma_me=1 / trellis=1 / 8x8dct=1 / cqm=0 / deadzone=21,11 / fast_pskip=1 / chroma_qp_offset=-2 / threads=12 / lookahead_threads=2 / sliced_threads=0 / nr=0 / decimate=1 / interlaced=0 / bluray_compat=0 / constrained_intra=0 / bframes=3 / b_pyramid=2 / b_adapt=2 / b_bias=0 / direct=3 / weightb=1 / open_gop=0 / weightp=2 / keyint=240 / keyint_min=24 / scenecut=40 / intra_refresh=0 / rc_lookahead=50 / rc=2pass / mbtree=1 / bitrate=9314 / ratetol=1.0 / qcomp=0.60 / qpmin=0 / qpmax=69 / qpstep=4 / cplxblur=20.0 / qblur=0.5 / ip_ratio=1.40 / aq=3:0.80
Язык : English
Default : Да
Forced : Нет
Statistics Tags Issue : mkvmerge v8.8.0 ('Wind at my back') 64bit 2016-01-12 06:15:56 / mkvmerge v8.8.0 ('Wind at my back') 64bit 2016-01-12 06:15:56 / UTC 2016-01-11 19:28:51
FromStats_BitRate : 9309417
FromStats_Duration : 01:41:12.191000000
FromStats_FrameCount : 145587
FromStats_StreamSize : 7066070411
Аудио #1
Идентификатор : 2
Формат : DTS
Формат/Информация : Digital Theater Systems
Режим : 16
Параметр Endianness формата : Big
Идентификатор кодека : A_DTS
Продолжительность : 1 ч. 41 м.
Вид битрейта : Постоянный
Битрейт : 1509 Кбит/сек
Каналы : 6 каналов
Расположение каналов : Front: L C R, Side: L R, LFE
Частота : 48,0 КГц
Частота кадров : 93,750 кадра/сек (512 spf)
Битовая глубина : 24 бит
Метод сжатия : С потерями
Размер потока : 1,07 Гбайт (14%)
Язык : English
Default : Нет
Forced : Нет
Statistics Tags Issue : mkvmerge v8.8.0 ('Wind at my back') 64bit 2016-01-12 06:15:56 / mkvmerge v8.8.0 ('Wind at my back') 64bit 2016-01-12 06:15:56 / UTC 2016-01-11 19:28:51
FromStats_BitRate : 1508999
FromStats_Duration : 01:41:11.766000000
FromStats_FrameCount : 569228
FromStats_StreamSize : 1145286736
Аудио #2
Идентификатор : 3
Формат : AC-3
Формат/Информация : Audio Coding 3
Расширение режима : CM (complete main)
Параметр Endianness формата : Big
Идентификатор кодека : A_AC3
Продолжительность : 1 ч. 41 м.
Вид битрейта : Постоянный
Битрейт : 192 Кбит/сек
Каналы : 2 канала
Расположение каналов : Front: L R
Частота : 48,0 КГц
Частота кадров : 31,250 кадров/сек (1536 spf)
Метод сжатия : С потерями
Размер потока : 139 Мбайт (2%)
Заголовок : DVO [Parovoz Production]
Язык : Russian
Default : Да
Forced : Нет
Statistics Tags Issue : mkvmerge v8.8.0 ('Wind at my back') 64bit 2016-01-12 06:15:56 / mkvmerge v8.8.0 ('Wind at my back') 64bit 2016-01-12 06:15:56 / UTC 2016-01-11 19:28:51
FromStats_BitRate : 192000
FromStats_Duration : 01:41:12.128000000
FromStats_FrameCount : 189754
FromStats_StreamSize : 145731072
Текст
Идентификатор : 4
Формат : UTF-8
Идентификатор кодека : S_TEXT/UTF8
Идентификатор кодека/Информация : UTF-8 Plain Text
Язык : English
Default : Нет
Forced : Нет
Statistics Tags Issue : mkvmerge v8.8.0 ('Wind at my back') 64bit 2016-01-12 06:15:56 / mkvmerge v8.8.0 ('Wind at my back') 64bit 2016-01-12 06:15:56 / UTC 2016-01-11 19:28:51
FromStats_BitRate : 49
FromStats_Duration : 01:33:33.232000000
FromStats_FrameCount : 1045
FromStats_StreamSize : 34662
Меню
00:00:00.000 : en:00:00:00.000
00:09:13.428 : en:00:09:13.428
00:16:38.289 : en:00:16:38.289
00:20:26.475 : en:00:20:26.475
00:30:19.860 : en:00:30:19.860
00:39:57.562 : en:00:39:57.562
00:46:02.468 : en:00:46:02.468
01:00:26.748 : en:01:00:26.748
01:04:05.800 : en:01:04:05.800
01:11:37.126 : en:01:11:37.126
01:18:46.639 : en:01:18:46.639
01:22:42.541 : en:01:22:42.541

[Цитировать]



Показать сообщения:    

Текущее время: 10-Дек 00:24

Часовой пояс: UTC + 3


Вы не можете начинать темы
Вы не можете отвечать на сообщения
Вы не можете редактировать свои сообщения
Вы не можете удалять свои сообщения
Вы не можете голосовать в опросах
Вы не можете прикреплять файлы к сообщениям
Вы не можете скачивать файлы

!ВНИМАНИЕ!
Сайт не предоставляет электронные версии произведений, а занимается лишь коллекционированием и каталогизацией ссылок, присылаемых и публикуемых на форуме нашими читателями. Если вы являетесь правообладателем какого-либо представленного материала и не желаете, чтобы ссылка на него находилась в нашем каталоге, свяжитесь с нами, и мы незамедлительно удалим ее. Файлы для обмена на трекере предоставлены пользователями сайта, и администрация не несет ответственности за их содержание. Просьба не заливать файлы, защищенные авторскими правами, а также файлы нелегального содержания!