[ Сегодня идет свободное скачивание без начисления Download ]


Статистика раздачи
Буду качать: [ 1 ]
Скачал: [ 1 ]
 
   
 
Top  
 
 
Ужастики / Goosebumps (2015) BDRip [H.264/720p] [hand made 60fps]«The stories are alive»- Производство: США, Австралия / Columbia Pictures, Village Roadshow Pictures
Жанр: Фэнтези, комедия, приключения
Режиссер: Роб Леттерман
Продюсер: Дебора Форте, Нил Х. Мориц, Билл Баннерман
Актеры: Дилан Миннетт, Одейя Раш, Эми Райан, Райан Ли, Джиллиан Белл, Джек Блэк, Кен Марино, Холстон Сейдж, Стивен Крюгер, Кит А. Болден, Аманда Ланд, Тимоти С. Саймонс, Каран Сони, Р.Л. Стайн, Калеб Эмери, Габриэла Фрайле, Нэйт Андраде, Шелдон Браун, Мелисса Брюэр, Маршалл Чока
Описание:
Кошмары бывают разные. Вечно голодные оборотни, плохо воспитанные зомби, агрессивные садовые гномы и даже гигантский неуравновешенный снежный человек…
Все эти фантастические монстры и монстрики многие годы магическим образом удерживались на страницах знаменитых бестселлеров «Ужастики», пока по воле случая их не выпустили на свободу в реальный мир.

Продолжительность: 01:43:16
Качество видео: BDRip 720p [profile-LQ]
Перевод: Дублированный (iTunes)
Субтитры: Отсутствуют
Видеокодек: MPEG-4 AVC/H.264
Битрейт видео: ~ 5283 Кбит/сек
Размер кадра: 1280 x 544
Аудио: AC3 5.1, 48.0 KHz, 384 Кбит/сек - Русский

MediaInfo:

Общее
Уникальный идентификатор : 243452813083466660836950551067107864555 (0xB7274E681F3BB3E7A188950CE8E52FEB)
Полное имя : E:\Торренты\Goosebumps 60fps.mkv
Формат : Matroska
Версия формата : Version 2
Размер файла : 4,17 Гбайт
Продолжительность : 1 ч. 43 м.
Общий поток : 5782 Кбит/сек
Дата кодирования : UTC 2016-01-18 09:52:21
Программа кодирования : mkvmerge v6.1.0 ('Old Devil') built on Mar 4 2013 09:10:42
Библиотека кодирования : libebml v1.3.0 + libmatroska v1.4.0
Видео
Идентификатор : 1
Формат : AVC
Формат/Информация : Advanced Video Codec
Профиль формата : High@L4.1
Параметр CABAC формата : Да
Параметр ReFrames формата : 6 кадров
Идентификатор кодека : V_MPEG4/ISO/AVC
Продолжительность : 1 ч. 43 м.
Битрейт : 5283 Кбит/сек
Ширина : 1280 пикселей
Высота : 544 пикселя
Соотношение сторон : 2,35:1
Режим частоты кадров : Постоянный
Частота кадров : 59,880 кадров/сек
Частота кадров в оригинале : 59,940 кадров/сек
Цветовое пространство : YUV
Субдискретизация насыщенности : 4:2:0
Битовая глубина : 8 бит
Тип развёртки : Прогрессивная
Бит/(Пиксели*Кадры) : 0.127
Размер потока : 3,81 Гбайт (91%)
Библиотека кодирования : x264 core 130 r2273 b3065e6
Настройки программы : cabac=1 / ref=6 / deblock=1:0:0 / analyse=0x3:0x133 / me=umh / subme=8 / psy=1 / psy_rd=1.00:0.15 / mixed_ref=1 / me_range=20 / chroma_me=1 / trellis=2 / 8x8dct=1 / cqm=0 / deadzone=21,11 / fast_pskip=0 / chroma_qp_offset=-3 / threads=6 / lookahead_threads=2 / sliced_threads=0 / nr=0 / decimate=0 / interlaced=0 / bluray_compat=0 / constrained_intra=0 / bframes=8 / b_pyramid=2 / b_adapt=2 / b_bias=0 / direct=1 / weightb=1 / open_gop=0 / weightp=2 / keyint=250 / keyint_min=25 / scenecut=40 / intra_refresh=0 / rc=crf / mbtree=0 / crf=18.0 / qcomp=0.63 / qpmin=10 / qpmax=51 / qpstep=4 / ip_ratio=1.40 / pb_ratio=1.30 / aq=1:1.20
Default : Да
Forced : Нет
Аудио
Идентификатор : 2
Формат : AC-3
Формат/Информация : Audio Coding 3
Расширение режима : CM (complete main)
Параметр Endianness формата : Big
Идентификатор кодека : A_AC3
Продолжительность : 1 ч. 43 м.
Вид битрейта : Постоянный
Битрейт : 384 Кбит/сек
Каналы : 6 каналов
Расположение каналов : Front: L C R, Side: L R, LFE
Частота : 48,0 КГц
Битовая глубина : 16 бит
Метод сжатия : С потерями
Размер потока : 284 Мбайт (7%)
Default : Да
Forced : Нет
Скриншоты:

[Цитировать]



Показать сообщения:    

Текущее время: 08-Дек 21:18

Часовой пояс: UTC + 3


Вы не можете начинать темы
Вы не можете отвечать на сообщения
Вы не можете редактировать свои сообщения
Вы не можете удалять свои сообщения
Вы не можете голосовать в опросах
Вы не можете прикреплять файлы к сообщениям
Вы не можете скачивать файлы

!ВНИМАНИЕ!
Сайт не предоставляет электронные версии произведений, а занимается лишь коллекционированием и каталогизацией ссылок, присылаемых и публикуемых на форуме нашими читателями. Если вы являетесь правообладателем какого-либо представленного материала и не желаете, чтобы ссылка на него находилась в нашем каталоге, свяжитесь с нами, и мы незамедлительно удалим ее. Файлы для обмена на трекере предоставлены пользователями сайта, и администрация не несет ответственности за их содержание. Просьба не заливать файлы, защищенные авторскими правами, а также файлы нелегального содержания!