[ Сегодня идет свободное скачивание без начисления Download ]


Статистика раздачи
Буду качать: [ 1 ]
Качаю: [ 1 ]
Скачал: [ 7 ]
 
   
 
Top  
 
 
SmartMe | React от А до Я (2015) PCRec [H.264/720p-1080p]- Автор (режиссер): Игорь Вовк, Роман Якобчук
Жанр: Программирование, JavaScript, React
Описание:
React - это open-source JavaScript библиотека для создания пользовательских интерфейсов, которая призвана решать проблемы при частичном обновлении содержимого веб-страницы, с которыми сталкиваются в разработке одностраничных приложений.
React предназначен, чтобы помочь разработчикам создавать крупные веб-приложения, которые используют данные, которые меняются со временем, без перезагрузки страницы. Его цель состоит в том, чтобы быть быстрым, простым, масштабируемым.
Продолжительность: 02:20:15
Качество видео: PCRec
Видео: AVC/H.264, 1280x720, 1920x1080, ~758-2577 kbps
Аудио: AAC, 2 ch, 126-192 kbps, CBR, VBR

Программа курса:

Знакомство с React:
История и концепция React
Плюсы и минусы React
Основные понятия React
Создание простого компонента:
Начало работы с простейшими компонентами в React
Передача данных между компонентами в React
Внутреннее состояние компонента
Необходимость избегать скрытого состояния в работе с React
Жизненный цикл компонентов React
React компоненты многоразового использования
Практика
Создание простого компонента ч.2:
Рекомендации по подключению библиотек
npm и node.js
Сборка с помощью browserify
Если же ты уже пробовал React, но желаешь узнать advanced-фишки этого замечательного фреймворка, то включай вторую часть:
Архитектура приложения:
Обзор, философия, основные идеи React
Store
Dispatcher
View и "Умные", "Глупые" компоненты React
Полезные дополнения React:
Обзор React add-ons
React add-ons. Практика
Single page applications with React
React и функциональное программирование:
Pure Render Mixin
Чистые функции
Типы данных
Сравнение ссылочных типов данных
Иммутабельные данные
Immutable.js
Использование React для SPA:
Использование React Router
Использование React Router в Flux
Изоморфные приложения:
Универсальные приложения
React для изоморфных приложений

Mediainfo:

Общее
Полное имя                               : C:\[SmartMe] React от А до Я - 2015\2. React JS advanced topics\2. Полезные дополнения React\02. React add-ons. Практика.mp4
Формат                                   : MPEG-4
Профиль формата                          : Base Media / Version 2
Идентификатор кодека                     : mp42 (isom/mp42)
Размер файла                             : 38,8 Мбайт
Продолжительность                        : 5 м. 42 с.
Режим общего битрейта                    : Переменный
Общий поток                              : 952 Кбит/сек
Дата кодирования                         : UTC 2015-12-25 13:20:45
Дата пометки                             : UTC 2015-12-25 13:20:45
gsst                                     : 0
gstd                                     : 342098
gssd                                     : B4A7DDA23
gshh                                     : r3---sn-4g57kuel.googlevideo.com
Видео
Идентификатор                            : 1
Формат                                   : AVC
Формат/Информация                        : Advanced Video Codec
Профиль формата                          : High@L3.1
Параметр CABAC формата                   : Да
Параметр ReFrames формата                : 1 кадр
Идентификатор кодека                     : avc1
Идентификатор кодека/Информация          : Advanced Video Coding
Продолжительность                        : 5 м. 42 с.
Битрейт                                  : 758 Кбит/сек
Максимальный битрейт                     : 2385 Кбит/сек
Ширина                                   : 1280 пикселей
Высота                                   : 720 пикселей
Соотношение сторон                       : 16:9
Режим частоты кадров                     : Постоянный
Частота кадров                           : 25,000 кадров/сек
Цветовое пространство                    : YUV
Субдискретизация насыщенности            : 4:2:0
Битовая глубина                          : 8 бит
Тип развёртки                            : Прогрессивная
Бит/(Пиксели*Кадры)                      : 0.033
Размер потока                            : 30,9 Мбайт (80%)
Дата пометки                             : UTC 2015-12-25 13:20:46
Аудио
Идентификатор                            : 2
Формат                                   : AAC
Формат/Информация                        : Advanced Audio Codec
Профиль формата                          : LC
Идентификатор кодека                     : 40
Продолжительность                        : 5 м. 42 с.
Вид битрейта                             : Переменный
Битрейт                                  : 192 Кбит/сек
Максимальный битрейт                     : 201 Кбит/сек
Каналы                                   : 2 канала
Расположение каналов                     : Front: L R
Частота                                  : 44,1 КГц
Частота кадров                           : 43,066 кадра/сек (1024 spf)
Метод сжатия                             : С потерями
Размер потока                            : 7,83 Мбайт (20%)
Заголовок                                : IsoMedia File Produced by Google, 5-11-2011
Язык                                     : English
Дата кодирования                         : UTC 2015-12-25 13:20:45
Дата пометки                             : UTC 2015-12-25 13:20:46
Общее
Полное имя                               : C:\[SmartMe] React от А до Я - 2015\1. React JS basics\1. Знакомство с React\01. История и концепция React.mp4
Формат                                   : MPEG-4
Профиль формата                          : Base Media
Идентификатор кодека                     : isom (isom/iso2/avc1/mp41)
Размер файла                             : 11,1 Мбайт
Продолжительность                        : 34 с.
Общий поток                              : 2703 Кбит/сек
Программа кодирования                    : Lavf56.40.101
Видео
Идентификатор                            : 1
Формат                                   : AVC
Формат/Информация                        : Advanced Video Codec
Профиль формата                          : High@L4
Параметр CABAC формата                   : Да
Параметр ReFrames формата                : 2 кадра
Идентификатор кодека                     : avc1
Идентификатор кодека/Информация          : Advanced Video Coding
Продолжительность                        : 34 с.
Duration_FirstFrame                      : -40 мс.
Битрейт                                  : 2577 Кбит/сек
Ширина                                   : 1920 пикселей
Высота                                   : 1080 пикселей
Соотношение сторон                       : 16:9
Режим частоты кадров                     : Переменный
Частота кадров                           : 25,029 кадров/сек
Минимальная частота кадров               : 25,000 кадров/сек
Максимальная частота кадров              : 25,014 кадров/сек
Цветовое пространство                    : YUV
Субдискретизация насыщенности            : 4:2:0
Битовая глубина                          : 8 бит
Тип развёртки                            : Прогрессивная
Бит/(Пиксели*Кадры)                      : 0.050
Размер потока                            : 10,5 Мбайт (95%)
Аудио
Идентификатор                            : 2
Формат                                   : AAC
Формат/Информация                        : Advanced Audio Codec
Профиль формата                          : LC
Идентификатор кодека                     : 40
Продолжительность                        : 34 с.
Вид битрейта                             : Постоянный
Битрейт                                  : 126 Кбит/сек
Каналы                                   : 2 канала
Расположение каналов                     : Front: L R
Частота                                  : 44,1 КГц
Частота кадров                           : 43,066 кадра/сек (1024 spf)
Метод сжатия                             : С потерями
Размер потока                            : 528 Кбайт (5%)
Default                                  : Да
Alternate group                          : 1
Скриншоты:

[Цитировать]



Показать сообщения:    

Текущее время: 09-Дек 14:40

Часовой пояс: UTC + 3


Вы не можете начинать темы
Вы не можете отвечать на сообщения
Вы не можете редактировать свои сообщения
Вы не можете удалять свои сообщения
Вы не можете голосовать в опросах
Вы не можете прикреплять файлы к сообщениям
Вы не можете скачивать файлы

!ВНИМАНИЕ!
Сайт не предоставляет электронные версии произведений, а занимается лишь коллекционированием и каталогизацией ссылок, присылаемых и публикуемых на форуме нашими читателями. Если вы являетесь правообладателем какого-либо представленного материала и не желаете, чтобы ссылка на него находилась в нашем каталоге, свяжитесь с нами, и мы незамедлительно удалим ее. Файлы для обмена на трекере предоставлены пользователями сайта, и администрация не несет ответственности за их содержание. Просьба не заливать файлы, защищенные авторскими правами, а также файлы нелегального содержания!