[ Сегодня идет свободное скачивание без начисления Download ]


Статистика раздачи
Нет
 
   
 
Top  
 
 
Кейс Инфобизнесмена | Базовые навыки в Sony Vegas Pro (2016) HDTV - Автор (режиссер): Кейс Инфобизнесмена
Производство: Кейс Инфобизнесмена
Жанр: Обучающее видео
Описание:
Небольшой видеокурс по Sony Vegas Pro 10, охватывающий базовые навыки работы в программе и основные инструменты.
Продолжительность: 00:57:02
Качество видео: HDTV
Язык: Русский
Видео: MPEG-2, 1280х720, ~9800 kbps
Аудио: MP2, 2 ch, 384 kbps, CBR

Mediainfo:

Общее
Полное имя                               : E:\курс\Базовые_навыки_в_Sony_Vegas_Pro\Media\b3ab6368-363a-4574-a032-0b95e54c1f02\Video\1. Интерфейс программы. Поисковик в Sony Vegas Pro.mpg
Формат                                   : MPEG-PS
Размер файла                             : 401 Мбайт
Продолжительность                        : 2 м. 50 с.
Общий поток                              : 19,8 Мбит/сек
Видео
Идентификатор                            : 224 (0xE0)
Формат                                   : MPEG Video
Коммерческое название                    : HDV 720p
Версия формата                           : Version 2
Профиль формата                          : [email protected] 1440
Параметр BVOP формата                    : Да
Параметр матрицы формата                 : По умолчанию
Параметр GOP формата                     : M=3, N=15
Продолжительность                        : 2 м. 50 с.
Битрейт                                  : 19,0 Мбит/сек
Максимальный битрейт                     : 9800 Кбит/сек
Ширина                                   : 1280 пикселей
Высота                                   : 720 пикселей
Соотношение сторон                       : 16:9
Частота кадров                           : 29,970 (30000/1001) кадров/сек
Цветовое пространство                    : YUV
Субдискретизация насыщенности            : 4:2:0
Битовая глубина                          : 8 бит
Тип развёртки                            : Прогрессивная
Метод сжатия                             : С потерями
Бит/(Пиксели*Кадры)                      : 0.687
Временной код первого кадра              : 00:00:00:00
Оригинал временного кода                 : Group of pictures header
GOP, открыто/закрыто                     : Закрыто
Размер потока                            : 385 Мбайт (96%)
Аудио
Идентификатор                            : 192 (0xC0)
Формат                                   : MPEG Audio
Версия формата                           : Version 1
Профиль формата                          : Layer 2
Продолжительность                        : 2 м. 50 с.
Вид битрейта                             : Постоянный
Битрейт                                  : 384 Кбит/сек
Каналы                                   : 2 канала
Частота                                  : 48,0 КГц
Метод сжатия                             : С потерями
Размер потока                            : 7,79 Мбайт (2%)
Общее
Полное имя                               : E:\курс\Базовые_навыки_в_Sony_Vegas_Pro\Media\b3ab6368-363a-4574-a032-0b95e54c1f02\Video\2. Определение соотношения сторон. Выбор настроек проекта.mpg
Формат                                   : MPEG-PS
Размер файла                             : 455 Мбайт
Продолжительность                        : 3 м. 13 с.
Общий поток                              : 19,7 Мбит/сек
Видео
Идентификатор                            : 224 (0xE0)
Формат                                   : MPEG Video
Коммерческое название                    : HDV 720p
Версия формата                           : Version 2
Профиль формата                          : [email protected] 1440
Параметр BVOP формата                    : Да
Параметр матрицы формата                 : По умолчанию
Параметр GOP формата                     : M=3, N=15
Продолжительность                        : 3 м. 13 с.
Битрейт                                  : 19,0 Мбит/сек
Максимальный битрейт                     : 9800 Кбит/сек
Ширина                                   : 1280 пикселей
Высота                                   : 720 пикселей
Соотношение сторон                       : 16:9
Частота кадров                           : 29,970 (30000/1001) кадров/сек
Цветовое пространство                    : YUV
Субдискретизация насыщенности            : 4:2:0
Битовая глубина                          : 8 бит
Тип развёртки                            : Прогрессивная
Метод сжатия                             : С потерями
Бит/(Пиксели*Кадры)                      : 0.687
Временной код первого кадра              : 00:00:00:00
Оригинал временного кода                 : Group of pictures header
GOP, открыто/закрыто                     : Закрыто
Размер потока                            : 437 Мбайт (96%)
Аудио
Идентификатор                            : 192 (0xC0)
Формат                                   : MPEG Audio
Версия формата                           : Version 1
Профиль формата                          : Layer 2
Продолжительность                        : 3 м. 13 с.
Вид битрейта                             : Постоянный
Битрейт                                  : 384 Кбит/сек
Каналы                                   : 2 канала
Частота                                  : 48,0 КГц
Метод сжатия                             : С потерями
Размер потока                            : 8,84 Мбайт (2%)
Общее
Полное имя                               : E:\курс\Базовые_навыки_в_Sony_Vegas_Pro\Media\b3ab6368-363a-4574-a032-0b95e54c1f02\Video\3. Создание аудио и видеодорожек.mpg
Формат                                   : MPEG-PS
Размер файла                             : 581 Мбайт
Продолжительность                        : 4 м. 7 с.
Общий поток                              : 19,7 Мбит/сек
Видео
Идентификатор                            : 224 (0xE0)
Формат                                   : MPEG Video
Коммерческое название                    : HDV 720p
Версия формата                           : Version 2
Профиль формата                          : [email protected] 1440
Параметр BVOP формата                    : Да
Параметр матрицы формата                 : По умолчанию
Параметр GOP формата                     : M=3, N=15
Продолжительность                        : 4 м. 7 с.
Битрейт                                  : 19,0 Мбит/сек
Максимальный битрейт                     : 9800 Кбит/сек
Ширина                                   : 1280 пикселей
Высота                                   : 720 пикселей
Соотношение сторон                       : 16:9
Частота кадров                           : 29,970 (30000/1001) кадров/сек
Цветовое пространство                    : YUV
Субдискретизация насыщенности            : 4:2:0
Битовая глубина                          : 8 бит
Тип развёртки                            : Прогрессивная
Метод сжатия                             : С потерями
Бит/(Пиксели*Кадры)                      : 0.686
Временной код первого кадра              : 00:00:00:00
Оригинал временного кода                 : Group of pictures header
GOP, открыто/закрыто                     : Закрыто
Размер потока                            : 558 Мбайт (96%)
Аудио
Идентификатор                            : 192 (0xC0)
Формат                                   : MPEG Audio
Версия формата                           : Version 1
Профиль формата                          : Layer 2
Продолжительность                        : 4 м. 7 с.
Вид битрейта                             : Постоянный
Битрейт                                  : 384 Кбит/сек
Каналы                                   : 2 канала
Частота                                  : 48,0 КГц
Метод сжатия                             : С потерями
Размер потока                            : 11,3 Мбайт (2%)
Общее
Полное имя                               : E:\курс\Базовые_навыки_в_Sony_Vegas_Pro\Media\b3ab6368-363a-4574-a032-0b95e54c1f02\Video\4. Файлы на тайм-лайне. Разрезка файлов. Группировка файлов.mpg
Формат                                   : MPEG-PS
Размер файла                             : 405 Мбайт
Продолжительность                        : 6 м. 33 с.
Общий поток                              : 8637 Кбит/сек
Видео
Идентификатор                            : 224 (0xE0)
Формат                                   : MPEG Video
Коммерческое название                    : HDV 720p
Версия формата                           : Version 2
Профиль формата                          : [email protected] 1440
Параметр BVOP формата                    : Да
Параметр матрицы формата                 : По умолчанию
Параметр GOP формата                     : M=3, N=15
Продолжительность                        : 6 м. 33 с.
Битрейт                                  : 8154 Кбит/сек
Ширина                                   : 1280 пикселей
Высота                                   : 720 пикселей
Соотношение сторон                       : 16:9
Частота кадров                           : 29,970 (30000/1001) кадров/сек
Цветовое пространство                    : YUV
Субдискретизация насыщенности            : 4:2:0
Битовая глубина                          : 8 бит
Тип развёртки                            : Прогрессивная
Метод сжатия                             : С потерями
Бит/(Пиксели*Кадры)                      : 0.295
Временной код первого кадра              : 00:00:00:00
Оригинал временного кода                 : Group of pictures header
GOP, открыто/закрыто                     : Открыто
Размер потока                            : 379 Мбайт (94%)
Аудио
Идентификатор                            : 192 (0xC0)
Формат                                   : MPEG Audio
Версия формата                           : Version 1
Профиль формата                          : Layer 2
Продолжительность                        : 6 м. 33 с.
Вид битрейта                             : Постоянный
Битрейт                                  : 384 Кбит/сек
Каналы                                   : 2 канала
Частота                                  : 48,0 КГц
Метод сжатия                             : С потерями
Размер потока                            : 18,0 Мбайт (4%)
Общее
Полное имя                               : E:\курс\Базовые_навыки_в_Sony_Vegas_Pro\Media\b3ab6368-363a-4574-a032-0b95e54c1f02\Video\4. Файлы на тайм-лайне. Разрезка файлов. Группировка файлов.mpg
Формат                                   : MPEG-PS
Размер файла                             : 405 Мбайт
Продолжительность                        : 6 м. 33 с.
Общий поток                              : 8637 Кбит/сек
Видео
Идентификатор                            : 224 (0xE0)
Формат                                   : MPEG Video
Коммерческое название                    : HDV 720p
Версия формата                           : Version 2
Профиль формата                          : [email protected] 1440
Параметр BVOP формата                    : Да
Параметр матрицы формата                 : По умолчанию
Параметр GOP формата                     : M=3, N=15
Продолжительность                        : 6 м. 33 с.
Битрейт                                  : 8154 Кбит/сек
Ширина                                   : 1280 пикселей
Высота                                   : 720 пикселей
Соотношение сторон                       : 16:9
Частота кадров                           : 29,970 (30000/1001) кадров/сек
Цветовое пространство                    : YUV
Субдискретизация насыщенности            : 4:2:0
Битовая глубина                          : 8 бит
Тип развёртки                            : Прогрессивная
Метод сжатия                             : С потерями
Бит/(Пиксели*Кадры)                      : 0.295
Временной код первого кадра              : 00:00:00:00
Оригинал временного кода                 : Group of pictures header
GOP, открыто/закрыто                     : Открыто
Размер потока                            : 379 Мбайт (94%)
Аудио
Идентификатор                            : 192 (0xC0)
Формат                                   : MPEG Audio
Версия формата                           : Version 1
Профиль формата                          : Layer 2
Продолжительность                        : 6 м. 33 с.
Вид битрейта                             : Постоянный
Битрейт                                  : 384 Кбит/сек
Каналы                                   : 2 канала
Частота                                  : 48,0 КГц
Метод сжатия                             : С потерями
Размер потока                            : 18,0 Мбайт (4%)
Общее
Полное имя                               : E:\курс\Базовые_навыки_в_Sony_Vegas_Pro\Media\b3ab6368-363a-4574-a032-0b95e54c1f02\Video\5. Pan-Crop.mpg
Формат                                   : MPEG-PS
Размер файла                             : 659 Мбайт
Продолжительность                        : 4 м. 40 с.
Общий поток                              : 19,7 Мбит/сек
Видео
Идентификатор                            : 224 (0xE0)
Формат                                   : MPEG Video
Коммерческое название                    : HDV 720p
Версия формата                           : Version 2
Профиль формата                          : [email protected] 1440
Параметр BVOP формата                    : Да
Параметр матрицы формата                 : По умолчанию
Параметр GOP формата                     : M=3, N=15
Продолжительность                        : 4 м. 40 с.
Битрейт                                  : 19,0 Мбит/сек
Максимальный битрейт                     : 9800 Кбит/сек
Ширина                                   : 1280 пикселей
Высота                                   : 720 пикселей
Соотношение сторон                       : 16:9
Частота кадров                           : 29,970 (30000/1001) кадров/сек
Цветовое пространство                    : YUV
Субдискретизация насыщенности            : 4:2:0
Битовая глубина                          : 8 бит
Тип развёртки                            : Прогрессивная
Метод сжатия                             : С потерями
Бит/(Пиксели*Кадры)                      : 0.686
Временной код первого кадра              : 00:00:00:00
Оригинал временного кода                 : Group of pictures header
GOP, открыто/закрыто                     : Закрыто
Размер потока                            : 633 Мбайт (96%)
Аудио
Идентификатор                            : 192 (0xC0)
Формат                                   : MPEG Audio
Версия формата                           : Version 1
Профиль формата                          : Layer 2
Продолжительность                        : 4 м. 40 с.
Вид битрейта                             : Постоянный
Битрейт                                  : 384 Кбит/сек
Каналы                                   : 2 канала
Частота                                  : 48,0 КГц
Метод сжатия                             : С потерями
Размер потока                            : 12,8 Мбайт (2%)
Общее
Полное имя                               : E:\курс\Базовые_навыки_в_Sony_Vegas_Pro\Media\b3ab6368-363a-4574-a032-0b95e54c1f02\Video\6. Применение ключевых кадров в Sony Vegas Pro..mpg
Формат                                   : MPEG-PS
Размер файла                             : 453 Мбайт
Продолжительность                        : 3 м. 12 с.
Общий поток                              : 19,7 Мбит/сек
Видео
Идентификатор                            : 224 (0xE0)
Формат                                   : MPEG Video
Коммерческое название                    : HDV 720p
Версия формата                           : Version 2
Профиль формата                          : [email protected] 1440
Параметр BVOP формата                    : Да
Параметр матрицы формата                 : По умолчанию
Параметр GOP формата                     : M=3, N=15
Продолжительность                        : 3 м. 12 с.
Битрейт                                  : 19,0 Мбит/сек
Максимальный битрейт                     : 9800 Кбит/сек
Ширина                                   : 1280 пикселей
Высота                                   : 720 пикселей
Соотношение сторон                       : 16:9
Частота кадров                           : 29,970 (30000/1001) кадров/сек
Цветовое пространство                    : YUV
Субдискретизация насыщенности            : 4:2:0
Битовая глубина                          : 8 бит
Тип развёртки                            : Прогрессивная
Метод сжатия                             : С потерями
Бит/(Пиксели*Кадры)                      : 0.687
Временной код первого кадра              : 00:00:00:00
Оригинал временного кода                 : Group of pictures header
GOP, открыто/закрыто                     : Закрыто
Размер потока                            : 435 Мбайт (96%)
Аудио
Идентификатор                            : 192 (0xC0)
Формат                                   : MPEG Audio
Версия формата                           : Version 1
Профиль формата                          : Layer 2
Продолжительность                        : 3 м. 12 с.
Вид битрейта                             : Постоянный
Битрейт                                  : 384 Кбит/сек
Каналы                                   : 2 канала
Частота                                  : 48,0 КГц
Метод сжатия                             : С потерями
Размер потока                            : 8,81 Мбайт (2%)
Общее
Полное имя                               : E:\курс\Базовые_навыки_в_Sony_Vegas_Pro\Media\b3ab6368-363a-4574-a032-0b95e54c1f02\Video\7. Постановка переходов в Sony Vegas Pro.mpg
Формат                                   : MPEG-PS
Размер файла                             : 406 Мбайт
Продолжительность                        : 6 м. 52 с.
Общий поток                              : 8247 Кбит/сек
Видео
Идентификатор                            : 224 (0xE0)
Формат                                   : MPEG Video
Коммерческое название                    : HDV 720p
Версия формата                           : Version 2
Профиль формата                          : [email protected] 1440
Параметр BVOP формата                    : Да
Параметр матрицы формата                 : По умолчанию
Параметр GOP формата                     : M=3, N=15
Продолжительность                        : 6 м. 52 с.
Битрейт                                  : 7764 Кбит/сек
Ширина                                   : 1280 пикселей
Высота                                   : 720 пикселей
Соотношение сторон                       : 16:9
Частота кадров                           : 29,970 (30000/1001) кадров/сек
Цветовое пространство                    : YUV
Субдискретизация насыщенности            : 4:2:0
Битовая глубина                          : 8 бит
Тип развёртки                            : Прогрессивная
Метод сжатия                             : С потерями
Бит/(Пиксели*Кадры)                      : 0.281
Временной код первого кадра              : 00:00:00:00
Оригинал временного кода                 : Group of pictures header
GOP, открыто/закрыто                     : Открыто
Размер потока                            : 379 Мбайт (93%)
Аудио
Идентификатор                            : 192 (0xC0)
Формат                                   : MPEG Audio
Версия формата                           : Version 1
Профиль формата                          : Layer 2
Продолжительность                        : 6 м. 52 с.
Вид битрейта                             : Постоянный
Битрейт                                  : 384 Кбит/сек
Каналы                                   : 2 канала
Частота                                  : 48,0 КГц
Метод сжатия                             : С потерями
Размер потока                            : 18,9 Мбайт (5%)
Общее
Полное имя                               : E:\курс\Базовые_навыки_в_Sony_Vegas_Pro\Media\b3ab6368-363a-4574-a032-0b95e54c1f02\Video\8. Видеоэффекты. Замедление..mpg
Формат                                   : MPEG-PS
Размер файла                             : 456 Мбайт
Продолжительность                        : 7 м. 21 с.
Общий поток                              : 8659 Кбит/сек
Видео
Идентификатор                            : 224 (0xE0)
Формат                                   : MPEG Video
Коммерческое название                    : HDV 720p
Версия формата                           : Version 2
Профиль формата                          : [email protected] 1440
Параметр BVOP формата                    : Да
Параметр матрицы формата                 : По умолчанию
Параметр GOP формата                     : M=3, N=15
Продолжительность                        : 7 м. 21 с.
Битрейт                                  : 8174 Кбит/сек
Ширина                                   : 1280 пикселей
Высота                                   : 720 пикселей
Соотношение сторон                       : 16:9
Частота кадров                           : 29,970 (30000/1001) кадров/сек
Цветовое пространство                    : YUV
Субдискретизация насыщенности            : 4:2:0
Битовая глубина                          : 8 бит
Тип развёртки                            : Прогрессивная
Метод сжатия                             : С потерями
Бит/(Пиксели*Кадры)                      : 0.296
Временной код первого кадра              : 00:00:00:00
Оригинал временного кода                 : Group of pictures header
GOP, открыто/закрыто                     : Открыто
Размер потока                            : 427 Мбайт (94%)
Аудио
Идентификатор                            : 192 (0xC0)
Формат                                   : MPEG Audio
Версия формата                           : Version 1
Профиль формата                          : Layer 2
Продолжительность                        : 7 м. 21 с.
Вид битрейта                             : Постоянный
Битрейт                                  : 384 Кбит/сек
Каналы                                   : 2 канала
Частота                                  : 48,0 КГц
Метод сжатия                             : С потерями
Размер потока                            : 20,2 Мбайт (4%)
Общее
Полное имя                               : E:\курс\Базовые_навыки_в_Sony_Vegas_Pro\Media\b3ab6368-363a-4574-a032-0b95e54c1f02\Video\9. Запись звука в Sony Vegas Pro..mpg
Формат                                   : MPEG-PS
Размер файла                             : 260 Мбайт
Продолжительность                        : 1 м. 50 с.
Общий поток                              : 19,8 Мбит/сек
Видео
Идентификатор                            : 224 (0xE0)
Формат                                   : MPEG Video
Коммерческое название                    : HDV 720p
Версия формата                           : Version 2
Профиль формата                          : [email protected] 1440
Параметр BVOP формата                    : Да
Параметр матрицы формата                 : По умолчанию
Параметр GOP формата                     : M=3, N=15
Продолжительность                        : 1 м. 50 с.
Битрейт                                  : 19,0 Мбит/сек
Максимальный битрейт                     : 9800 Кбит/сек
Ширина                                   : 1280 пикселей
Высота                                   : 720 пикселей
Соотношение сторон                       : 16:9
Частота кадров                           : 29,970 (30000/1001) кадров/сек
Цветовое пространство                    : YUV
Субдискретизация насыщенности            : 4:2:0
Битовая глубина                          : 8 бит
Тип развёртки                            : Прогрессивная
Метод сжатия                             : С потерями
Бит/(Пиксели*Кадры)                      : 0.688
Временной код первого кадра              : 00:00:00:00
Оригинал временного кода                 : Group of pictures header
GOP, открыто/закрыто                     : Закрыто
Размер потока                            : 250 Мбайт (96%)
Аудио
Идентификатор                            : 192 (0xC0)
Формат                                   : MPEG Audio
Версия формата                           : Version 1
Профиль формата                          : Layer 2
Продолжительность                        : 1 м. 50 с.
Вид битрейта                             : Постоянный
Битрейт                                  : 384 Кбит/сек
Каналы                                   : 2 канала
Частота                                  : 48,0 КГц
Метод сжатия                             : С потерями
Размер потока                            : 5,06 Мбайт (2%)
Общее
Полное имя                               : E:\курс\Базовые_навыки_в_Sony_Vegas_Pro\Media\b3ab6368-363a-4574-a032-0b95e54c1f02\Video\10. Аудиоэффекты. Громкость..mpg
Формат                                   : MPEG-PS
Размер файла                             : 405 Мбайт
Продолжительность                        : 5 м. 58 с.
Общий поток                              : 9483 Кбит/сек
Видео
Идентификатор                            : 224 (0xE0)
Формат                                   : MPEG Video
Коммерческое название                    : HDV 720p
Версия формата                           : Version 2
Профиль формата                          : [email protected] 1440
Параметр BVOP формата                    : Да
Параметр матрицы формата                 : По умолчанию
Параметр GOP формата                     : M=3, N=15
Продолжительность                        : 5 м. 58 с.
Битрейт                                  : 8988 Кбит/сек
Ширина                                   : 1280 пикселей
Высота                                   : 720 пикселей
Соотношение сторон                       : 16:9
Частота кадров                           : 29,970 (30000/1001) кадров/сек
Цветовое пространство                    : YUV
Субдискретизация насыщенности            : 4:2:0
Битовая глубина                          : 8 бит
Тип развёртки                            : Прогрессивная
Метод сжатия                             : С потерями
Бит/(Пиксели*Кадры)                      : 0.325
Временной код первого кадра              : 00:00:00:00
Оригинал временного кода                 : Group of pictures header
GOP, открыто/закрыто                     : Открыто
Размер потока                            : 381 Мбайт (94%)
Аудио
Идентификатор                            : 192 (0xC0)
Формат                                   : MPEG Audio
Версия формата                           : Version 1
Профиль формата                          : Layer 2
Продолжительность                        : 5 м. 58 с.
Вид битрейта                             : Постоянный
Битрейт                                  : 384 Кбит/сек
Каналы                                   : 2 канала
Частота                                  : 48,0 КГц
Метод сжатия                             : С потерями
Размер потока                            : 16,4 Мбайт (4%)
Общее
Полное имя                               : E:\курс\Базовые_навыки_в_Sony_Vegas_Pro\Media\b3ab6368-363a-4574-a032-0b95e54c1f02\Video\11. Текст в Sony Vegas Pro.mpg
Формат                                   : MPEG-PS
Размер файла                             : 361 Мбайт
Продолжительность                        : 4 м. 53 с.
Общий поток                              : 10,3 Мбит/сек
Видео
Идентификатор                            : 224 (0xE0)
Формат                                   : MPEG Video
Коммерческое название                    : HDV 720p
Версия формата                           : Version 2
Профиль формата                          : [email protected] 1440
Параметр BVOP формата                    : Да
Параметр матрицы формата                 : По умолчанию
Параметр GOP формата                     : M=3, N=15
Продолжительность                        : 4 м. 53 с.
Битрейт                                  : 9800 Кбит/сек
Ширина                                   : 1280 пикселей
Высота                                   : 720 пикселей
Соотношение сторон                       : 16:9
Частота кадров                           : 29,970 (30000/1001) кадров/сек
Цветовое пространство                    : YUV
Субдискретизация насыщенности            : 4:2:0
Битовая глубина                          : 8 бит
Тип развёртки                            : Прогрессивная
Метод сжатия                             : С потерями
Бит/(Пиксели*Кадры)                      : 0.355
Временной код первого кадра              : 00:00:00:00
Оригинал временного кода                 : Group of pictures header
GOP, открыто/закрыто                     : Закрыто
Размер потока                            : 340 Мбайт (94%)
Аудио
Идентификатор                            : 192 (0xC0)
Формат                                   : MPEG Audio
Версия формата                           : Version 1
Профиль формата                          : Layer 2
Продолжительность                        : 4 м. 53 с.
Вид битрейта                             : Постоянный
Битрейт                                  : 384 Кбит/сек
Каналы                                   : 2 канала
Частота                                  : 48,0 КГц
Метод сжатия                             : С потерями
Размер потока                            : 13,4 Мбайт (4%)
Общее
Полное имя                               : E:\курс\Базовые_навыки_в_Sony_Vegas_Pro\Media\b3ab6368-363a-4574-a032-0b95e54c1f02\Video\12. Замена файла в Sony Vegas Pro (Replace)..mpg
Формат                                   : MPEG-PS
Размер файла                             : 202 Мбайт
Продолжительность                        : 1 м. 25 с.
Общий поток                              : 19,8 Мбит/сек
Видео
Идентификатор                            : 224 (0xE0)
Формат                                   : MPEG Video
Коммерческое название                    : HDV 720p
Версия формата                           : Version 2
Профиль формата                          : [email protected] 1440
Параметр BVOP формата                    : Да
Параметр матрицы формата                 : По умолчанию
Параметр GOP формата                     : M=3, N=15
Продолжительность                        : 1 м. 25 с.
Битрейт                                  : 19,0 Мбит/сек
Максимальный битрейт                     : 9800 Кбит/сек
Ширина                                   : 1280 пикселей
Высота                                   : 720 пикселей
Соотношение сторон                       : 16:9
Частота кадров                           : 29,970 (30000/1001) кадров/сек
Цветовое пространство                    : YUV
Субдискретизация насыщенности            : 4:2:0
Битовая глубина                          : 8 бит
Тип развёртки                            : Прогрессивная
Метод сжатия                             : С потерями
Бит/(Пиксели*Кадры)                      : 0.689
Временной код первого кадра              : 00:00:00:00
Оригинал временного кода                 : Group of pictures header
GOP, открыто/закрыто                     : Закрыто
Размер потока                            : 194 Мбайт (96%)
Аудио
Идентификатор                            : 192 (0xC0)
Формат                                   : MPEG Audio
Версия формата                           : Version 1
Профиль формата                          : Layer 2
Продолжительность                        : 1 м. 25 с.
Вид битрейта                             : Постоянный
Битрейт                                  : 384 Кбит/сек
Каналы                                   : 2 канала
Частота                                  : 48,0 КГц
Метод сжатия                             : С потерями
Размер потока                            : 3,91 Мбайт (2%)
Общее
Полное имя                               : E:\курс\Базовые_навыки_в_Sony_Vegas_Pro\Media\b3ab6368-363a-4574-a032-0b95e54c1f02\Video\13. Рендер в Sony Vegas Pro.mpg
Формат                                   : MPEG-PS
Размер файла                             : 291 Мбайт
Продолжительность                        : 3 м. 57 с.
Общий поток                              : 10,3 Мбит/сек
Видео
Идентификатор                            : 224 (0xE0)
Формат                                   : MPEG Video
Коммерческое название                    : HDV 720p
Версия формата                           : Version 2
Профиль формата                          : [email protected] 1440
Параметр BVOP формата                    : Да
Параметр матрицы формата                 : По умолчанию
Параметр GOP формата                     : M=3, N=15
Продолжительность                        : 3 м. 57 с.
Битрейт                                  : 9800 Кбит/сек
Ширина                                   : 1280 пикселей
Высота                                   : 720 пикселей
Соотношение сторон                       : 16:9
Частота кадров                           : 29,970 (30000/1001) кадров/сек
Цветовое пространство                    : YUV
Субдискретизация насыщенности            : 4:2:0
Битовая глубина                          : 8 бит
Тип развёртки                            : Прогрессивная
Метод сжатия                             : С потерями
Бит/(Пиксели*Кадры)                      : 0.355
Временной код первого кадра              : 00:00:00:00
Оригинал временного кода                 : Group of pictures header
GOP, открыто/закрыто                     : Закрыто
Размер потока                            : 275 Мбайт (94%)
Аудио
Идентификатор                            : 192 (0xC0)
Формат                                   : MPEG Audio
Версия формата                           : Version 1
Профиль формата                          : Layer 2
Продолжительность                        : 3 м. 57 с.
Вид битрейта                             : Постоянный
Битрейт                                  : 384 Кбит/сек
Каналы                                   : 2 канала
Частота                                  : 48,0 КГц
Метод сжатия                             : С потерями
Размер потока                            : 10,9 Мбайт (4%)
Скриншоты:

[Цитировать]



Показать сообщения:    

Текущее время: 04-Дек 11:08

Часовой пояс: UTC + 3


Вы не можете начинать темы
Вы не можете отвечать на сообщения
Вы не можете редактировать свои сообщения
Вы не можете удалять свои сообщения
Вы не можете голосовать в опросах
Вы не можете прикреплять файлы к сообщениям
Вы не можете скачивать файлы

!ВНИМАНИЕ!
Сайт не предоставляет электронные версии произведений, а занимается лишь коллекционированием и каталогизацией ссылок, присылаемых и публикуемых на форуме нашими читателями. Если вы являетесь правообладателем какого-либо представленного материала и не желаете, чтобы ссылка на него находилась в нашем каталоге, свяжитесь с нами, и мы незамедлительно удалим ее. Файлы для обмена на трекере предоставлены пользователями сайта, и администрация не несет ответственности за их содержание. Просьба не заливать файлы, защищенные авторскими правами, а также файлы нелегального содержания!