[ Сегодня идет свободное скачивание без начисления Download ]


Статистика раздачи
Буду качать: [ 2 ]
Качаю: [ 1 ]
Скачал: [ 3 ]
 
   
 
Top  
 
 
Артем Лукьянов | Видеокурс по Adobe Premiere Pro от команды video smile (2016) PCRec - Автор (режиссер): Артем Лукьянов
Жанр: Видеомонтаж, видеообработка
Описание:
Дорогие друзья, мы, команда сайта VideoSmile.ru, рады представить вам мини-курс "Основы видеомонтажа в Adobe Premiere Pro CC".
Вот вы сняли видео.
А что делать дальше?
Прежде чем ваше видео можно будет показать зрителю, его нужно просмотреть, убрать все лишнее, соединить самый лучший материал в единое целое, сделать качественные склейки между клипами, настроить переходы, применить эффекты, добавить музыку и т.д.
Все это и есть видеомонтаж!
Видеомонтаж – это творческий процесс создания истории из разрозненных кусочков видео и фото.
Если вы думаете, что навыки
хорошего монтажа нужны только
в большом кино, то вы ошибаетесь!
Можно просто собрать отдельные кусочки видео в скучную и несвязную последовательность, а можно создать историю, которая полностью завладеет вниманием вашего зрителя.
Вы любите весело и активно отдыхать с друзьями? Почему бы вам не снять об этом видео? Видео отлично передает атмосферу дружелюбия и праздника. Видео поможет сохранить в памяти все ваши лучшие тусовки!
Вы занимаетесь спортом? Если да, то, возможно, у вас есть многочисленные видео с соревнований и тренировок, снятых на GoPro или другую камеру. Превратите эти видео из ненужного хлама на вашем жестком диске в потрясающие ролики, которые будет не стыдно показать родным и друзьям!
Вы любите путешествовать? Отлично! Освоив видеомонтаж, вы сможете создавать удивительные видео про свои поездки. Эти видео обязательно понравятся вашим родным и близким.
Изучая уроки курса, вы сможете оценить высокое качество контента, который ожидает вас в курсе в двойном размере!
Продолжительность: 02:12:43
Качество видео: PCRec
Видео: AVC/H.264, 1920x1080, ~505 Kbps
Аудио: AAC, 2 ch, 125kbps, CBR

Mediainfo:

General
Complete name                  : C:\Users\VIP\Documents\AutoPlay Media Studio 8\Projects\PremierePro\CD_Root\AutoPlay\Videos\Мини-курс “Основы видеомонтажа в Adobe Premiere Pro CC“. Урок 5.mp4
Format                         : MPEG-4
Format profile                 : Base Media
Codec ID                       : isom
File size                      : 150 MiB
Duration                       : 32mn 51s
Overall bit rate               : 637 Kbps
Writing application            : Lavf57.2.100
Video
ID                             : 1
Format                         : AVC
Format/Info                    : Advanced Video Codec
Format profile                 : [email protected]
Format settings, CABAC         : Yes
Format settings, ReFrames      : 3 frames
Codec ID                       : avc1
Codec ID/Info                  : Advanced Video Coding
Duration                       : 32mn 51s
Bit rate                       : 505 Kbps
Width                          : 1 920 pixels
Height                         : 1 080 pixels
Display aspect ratio           : 16:9
Frame rate mode                : Constant
Frame rate                     : 25.000 fps
Color space                    : YUV
Chroma subsampling             : 4:2:0
Bit depth                      : 8 bits
Scan type                      : Progressive
Bits/(Pixel*Frame)             : 0.010
Stream size                    : 119 MiB (79%)
Audio
ID                             : 2
Format                         : AAC
Format/Info                    : Advanced Audio Codec
Format profile                 : LC
Codec ID                       : 40
Duration                       : 32mn 51s
Bit rate mode                  : Constant
Bit rate                       : 126 Kbps
Channel(s)                     : 2 channels
Channel positions              : Front: L R
Sampling rate                  : 44.1 KHz
Compression mode               : Lossy
Delay relative to video        : 40ms
Stream size                    : 29.5 MiB (20%)

Дополнительная информация:

Курс состоит из 7 уроков продолжительностью 02:12:43 который научить вас работать с программой adobe premiere pro
Скриншоты:

[Цитировать]



Показать сообщения:    

Текущее время: 04-Дек 23:28

Часовой пояс: UTC + 3


Вы не можете начинать темы
Вы не можете отвечать на сообщения
Вы не можете редактировать свои сообщения
Вы не можете удалять свои сообщения
Вы не можете голосовать в опросах
Вы не можете прикреплять файлы к сообщениям
Вы не можете скачивать файлы

!ВНИМАНИЕ!
Сайт не предоставляет электронные версии произведений, а занимается лишь коллекционированием и каталогизацией ссылок, присылаемых и публикуемых на форуме нашими читателями. Если вы являетесь правообладателем какого-либо представленного материала и не желаете, чтобы ссылка на него находилась в нашем каталоге, свяжитесь с нами, и мы незамедлительно удалим ее. Файлы для обмена на трекере предоставлены пользователями сайта, и администрация не несет ответственности за их содержание. Просьба не заливать файлы, защищенные авторскими правами, а также файлы нелегального содержания!