[ Сегодня идет свободное скачивание без начисления Download ]


Статистика раздачи
Нет
 
   
 
Top  
 
 
Госпожа Америка
Mistress America
«from strangers to sisters»
Страна: США, Бразилия
Жанр: комедия
Год выпуска: 2015
Продолжительность: 01:24:18
Перевод: Профессиональный (многоголосый, закадровый) [Лицензия iTunes]
Субтитры: русские (Dr.pro & tiny_kangaroo), английские, английские (SDH)
Оригинальная аудиодорожка: английский
Режиссер: Ноа Баумбак / Noah Baumbach
В ролях: Грета Гервиг, Лола Кёрк, Хезер Линд, Синди Чунг, Жасмин Сепас Джонс, Мэттью Шир, Кэтрин Эрбе, Майкл Чернус, Нат Болдуин, Джульетт Бретт, Андреа Чен, Шена Даудесвелл
Описание:
Трейси - одинокая студентка нью-йоркского колледжа. Ее жизнь скоро изменится благодаря будущей сводной сестре Брук, любящей приключения и втягивающей Трейси в сумасшедшие эскапады.

Сэмпл
Качество видео: BDRip-AVC [HDChina / Blu-ray Disc / 1080p]
Формат видео: MKV
Видео кодек: AVC
Аудио кодек: AC3
Видео: 2809 Кбит/сек, 1152*622 (1,85:1), в 23,976 (24000/1001) кадра/сек, AVC
Аудио #1: Russian, 384 Кбит/сек, 48,0 КГц, 6 каналов, AC-3
Аудио #2: English, 448 Кбит/сек, 48,0 КГц, 6 каналов, AC-3
Навигация по главам: есть

MediaInfo

Общее
Уникальный идентификатор : 236626412679203295779440181657974285663 (0xB20496E1AF60E58DA205D2C1AADF255F)
Полное имя : M:Rips3Mistress AmericaMistress.America.2015.BDRip-AVC.MVO.2.18Gb.stalkerok.new-team.mkv
Формат : Matroska
Версия формата : Version 4 / Version 2
Размер файла : 2,14 Гбайт
Продолжительность : 1 ч. 24 м.
Общий поток : 3639 Кбит/сек
Название фильма : Mistress America (2015) (New-Team) (Rip by Stalker oK)
Дата кодирования : UTC 2016-01-19 14:20:40
Программа кодирования : mkvmerge v8.6.1 ('Flying') 64bit
Библиотека кодирования : libebml v1.3.3 + libmatroska v1.4.4
Видео
Идентификатор : 1
Формат : AVC
Формат/Информация : Advanced Video Codec
Профиль формата : High@L4.1
Параметр CABAC формата : Да
Параметр ReFrames формата : 11 кадров
Идентификатор кодека : V_MPEG4/ISO/AVC
Продолжительность : 1 ч. 24 м.
Битрейт : 2809 Кбит/сек
Ширина : 1152 пикселя
Высота : 622 пикселя
Соотношение сторон : 1,85:1
Режим частоты кадров : Постоянный
Частота кадров : 23,976 (24000/1001) кадра/сек
Цветовое пространство : YUV
Субдискретизация насыщенности : 4:2:0
Битовая глубина : 8 бит
Тип развёртки : Прогрессивная
Бит/(Пиксели*Кадры) : 0.164
Размер потока : 1,65 Гбайт (77%)
Заголовок : Mistress America (2015) (New-Team) (Rip by Stalker oK)
Библиотека кодирования : x264 core 148 r2638kMod 7599210
Настройки программы : cabac=1 / ref=11 / deblock=1:-3:-3 / analyse=0x3:0x133 / me=umh / subme=11 / psy=1 / fade_compensate=0.00 / psy_rd=1.00:0.10 / mixed_ref=1 / me_range=48 / chroma_me=1 / trellis=2 / 8x8dct=1 / cqm=0 / deadzone=21,11 / fast_pskip=0 / chroma_qp_offset=-3 / threads=12 / lookahead_threads=3 / sliced_threads=0 / nr=0 / decimate=0 / interlaced=0 / bluray_compat=0 / constrained_intra=0 / fgo=0 / bframes=15 / b_pyramid=2 / b_adapt=2 / b_bias=0 / direct=3 / weightb=1 / open_gop=0 / weightp=2 / keyint=240 / keyint_min=23 / scenecut=40 / intra_refresh=0 / rc_lookahead=60 / rc=2pass / mbtree=0 / bitrate=2809 / ratetol=1.0 / qcomp=0.70 / qpmin=0 / qpmax=69 / qpstep=4 / cplxblur=20.0 / qblur=0.5 / vbv_maxrate=50000 / vbv_bufsize=62500 / nal_hrd=none / filler=0 / ip_ratio=1.40 / pb_ratio=1.30 / aq=3:0.90
Default : Да
Forced : Нет
Аудио #1
Идентификатор : 2
Формат : AC-3
Формат/Информация : Audio Coding 3
Расширение режима : CM (complete main)
Параметр Endianness формата : Big
Идентификатор кодека : A_AC3
Продолжительность : 1 ч. 24 м.
Вид битрейта : Постоянный
Битрейт : 384 Кбит/сек
Каналы : 6 каналов
Расположение каналов : Front: L C R, Side: L R, LFE
Частота : 48,0 КГц
Частота кадров : 31,250 кадров/сек (1536 spf)
Метод сжатия : С потерями
Задержка видео : 980 мс.
Размер потока : 231 Мбайт (11%)
Язык : Russian
Default : Да
Forced : Нет
Аудио #2
Идентификатор : 3
Формат : AC-3
Формат/Информация : Audio Coding 3
Расширение режима : CM (complete main)
Параметр Endianness формата : Big
Идентификатор кодека : A_AC3
Продолжительность : 1 ч. 24 м.
Вид битрейта : Постоянный
Битрейт : 448 Кбит/сек
Каналы : 6 каналов
Расположение каналов : Front: L C R, Side: L R, LFE
Частота : 48,0 КГц
Частота кадров : 31,250 кадров/сек (1536 spf)
Метод сжатия : С потерями
Размер потока : 270 Мбайт (12%)
Язык : English
Default : Нет
Forced : Нет
Текст #1
Идентификатор : 4
Формат : UTF-8
Идентификатор кодека : S_TEXT/UTF8
Идентификатор кодека/Информация : UTF-8 Plain Text
Продолжительность : 1 ч. 21 м.
Битрейт : 166 бит/сек
Count of elements : 2015
Размер потока : 99,6 Кбайт (0%)
Заголовок : Dr.pro & tiny_kangaroo
Язык : Russian
Default : Нет
Forced : Нет
Текст #2
Идентификатор : 5
Формат : UTF-8
Идентификатор кодека : S_TEXT/UTF8
Идентификатор кодека/Информация : UTF-8 Plain Text
Продолжительность : 1 ч. 23 м.
Битрейт : 101 бит/сек
Count of elements : 2074
Размер потока : 62,4 Кбайт (0%)
Язык : English
Default : Нет
Forced : Нет
Текст #3
Идентификатор : 6
Формат : UTF-8
Идентификатор кодека : S_TEXT/UTF8
Идентификатор кодека/Информация : UTF-8 Plain Text
Продолжительность : 1 ч. 23 м.
Битрейт : 104 бит/сек
Count of elements : 2127
Размер потока : 64,4 Кбайт (0%)
Заголовок : SDH
Язык : English
Default : Нет
Forced : Нет
Текст #4
Идентификатор : 7
Формат : UTF-8
Идентификатор кодека : S_TEXT/UTF8
Идентификатор кодека/Информация : UTF-8 Plain Text
Продолжительность : 1 ч. 24 м.
Битрейт : 113 бит/сек
Count of elements : 2129
Размер потока : 69,9 Кбайт (0%)
Заголовок : SDH
Язык : English
Default : Нет
Forced : Нет
Меню
00:00:00.000 : en:Chapter 1
00:05:12.020 : en:Chapter 2
00:09:03.167 : en:Chapter 3
00:12:21.574 : en:Chapter 4
00:15:26.592 : en:Chapter 5
00:18:10.089 : en:Chapter 6
00:20:56.296 : en:Chapter 7
00:24:38.143 : en:Chapter 8
00:27:30.065 : en:Chapter 9
00:30:37.210 : en:Chapter 10
00:32:51.302 : en:Chapter 11
00:36:23.681 : en:Chapter 12
00:39:24.862 : en:Chapter 13
00:42:04.146 : en:Chapter 14
00:45:20.634 : en:Chapter 15
00:48:18.645 : en:Chapter 16
00:51:11.485 : en:Chapter 17
00:54:32.185 : en:Chapter 18
00:58:43.603 : en:Chapter 19
01:03:48.908 : en:Chapter 20
01:06:45.167 : en:Chapter 21
01:11:08.555 : en:Chapter 22
01:15:55.551 : en:Chapter 23
01:22:06.963 : en:Chapter 24

Скриншоты

[Цитировать]



Показать сообщения:    

Текущее время: 10-Дек 17:43

Часовой пояс: UTC + 3


Вы не можете начинать темы
Вы не можете отвечать на сообщения
Вы не можете редактировать свои сообщения
Вы не можете удалять свои сообщения
Вы не можете голосовать в опросах
Вы не можете прикреплять файлы к сообщениям
Вы не можете скачивать файлы

!ВНИМАНИЕ!
Сайт не предоставляет электронные версии произведений, а занимается лишь коллекционированием и каталогизацией ссылок, присылаемых и публикуемых на форуме нашими читателями. Если вы являетесь правообладателем какого-либо представленного материала и не желаете, чтобы ссылка на него находилась в нашем каталоге, свяжитесь с нами, и мы незамедлительно удалим ее. Файлы для обмена на трекере предоставлены пользователями сайта, и администрация не несет ответственности за их содержание. Просьба не заливать файлы, защищенные авторскими правами, а также файлы нелегального содержания!