[ Сегодня идет свободное скачивание без начисления Download ]


Статистика раздачи
Нет
 
   
 
Top  
 
 
Франкенвини / Frankenweenie Год выпуска: 2012
Страна: США
Производство: Tim Burton Animation Co., Tim Burton Productions, Walt Disney Pictures
Жанр: Мультфильм, ужасы, фантастика, комедия
Режиссер: Тим Бёртон
В ролях: Чарли Тахэн, Кэтрин О’Хара, Мартин Шорт, Мартин Ландау,Вайнона Райдер, Аттикус Шаффер, Роберт Капрон, Кристофер Ли, Кончата Феррелл, Джеймс Хироюки Лиао
Перевод: Профессиональный (полное дублирование)
Субтитры: Английские
Описание: Обожаемый мальчиком Виктором пес Спарки погибает в результате несчастного случая. Мальчик, не желая мириться с потерей друга, призывает науку на помощь и…возвращает питомца к жизни! Казалось бы, все не так уж плохо, но когда Спарки сбегает от Виктора, его друзья, родители, учителя и жители городка узнают, что возвращение к жизни домашнего питомца может повлечь за собой неожиданные и даже ужасные последствия!
[kp]408395[/kp] [imdb]tt1142977[/imdb]
Качество: BDRip
Продолжительность: 01:26:56
Формат: MKV
Видео кодек: AVC
Аудио кодек: AC3
Видео: 1920x1036, 23.976 fps, 9246 Kbps
Аудио: АС3, 48 kHz, 6 ch, 384 Kbps [Russian]
Аудио #2: DTS, 48 kHz, 6 ch, 1510 Kbps [English]

Media Info

General
Unique ID : 220098953581358982916622545563215567292 (0xA595843C2A8CED85B402E0E1098599BC)
Complete name : E:Frankenvini.2012.D.BDRip.1080p.mkv
Format : Matroska
Format version : Version 2
File size : 6.75 GiB
Duration : 1h 26mn
Overall bit rate : 11.1 Mbps
Encoded date : UTC 2012-12-25 08:40:53
Writing application : mkvmerge v5.2.0 ('I can't explain') built on Dec 18 2011 18:12:03
Writing library : libebml v1.2.3 + libmatroska v1.3.0
Video
ID : 1
Format : AVC
Format/Info : Advanced Video Codec
Format profile : High@L4.1
Format settings, CABAC : Yes
Format settings, ReFrames : 4 frames
Codec ID : V_MPEG4/ISO/AVC
Duration : 1h 26mn
Bit rate : 9 246 Kbps
Width : 1 920 pixels
Height : 1 036 pixels
Display aspect ratio : 1.853
Frame rate : 23.976 fps
Color space : YUV
Chroma subsampling : 4:2:0
Bit depth : 8 bits
Scan type : Progressive
Bits/(Pixel*Frame) : 0.194
Stream size : 5.47 GiB (81%)
Title : Frankenweenie.2012.BluRay.1080p.DTS.x264.RoSubbed-CHD
Writing library : x264 core 128 r2216 198a7ea
Encoding settings : cabac=1 / ref=4 / deblock=1:-3:-3 / analyse=0x3:0x113 / me=umh / subme=10 / psy=1 / psy_rd=1.05:0.10 / mixed_ref=1 / me_range=48 / chroma_me=1 / trellis=2 / 8x8dct=1 / cqm=0 / deadzone=21,11 / fast_pskip=0 / chroma_qp_offset=-2 / threads=12 / lookahead_threads=2 / sliced_threads=0 / nr=0 / decimate=1 / interlaced=0 / bluray_compat=0 / constrained_intra=0 / bframes=6 / b_pyramid=2 / b_adapt=2 / b_bias=0 / direct=3 / weightb=1 / open_gop=0 / weightp=2 / keyint=250 / keyint_min=23 / scenecut=40 / intra_refresh=0 / rc_lookahead=40 / rc=2pass / mbtree=0 / bitrate=9246 / ratetol=2.0 / qcomp=0.70 / qpmin=0 / qpmax=69 / qpstep=4 / cplxblur=20.0 / qblur=0.5 / vbv_maxrate=40000 / vbv_bufsize=30000 / nal_hrd=none / ip_ratio=1.40 / pb_ratio=1.30 / aq=2:1.00
Language : English
Default : Yes
Forced : Yes
Audio #1
ID : 2
Format : AC-3
Format/Info : Audio Coding 3
Mode extension : CM (complete main)
Codec ID : A_AC3
Duration : 1h 26mn
Bit rate mode : Constant
Bit rate : 384 Kbps
Channel(s) : 6 channels
Channel positions : Front: L C R, Side: L R, LFE
Sampling rate : 48.0 KHz
Bit depth : 16 bits
Compression mode : Lossy
Stream size : 239 MiB (3%)
Title : DD 5.1 @ 384 kbps - Dub
Language : Russian
Default : Yes
Forced : Yes
Audio #2
ID : 3
Format : DTS
Format/Info : Digital Theater Systems
Codec ID : A_DTS
Duration : 1h 26mn
Bit rate mode : Constant
Bit rate : 1 510 Kbps
Channel(s) : 6 channels
Channel positions : Front: L C R, Side: L R, LFE
Sampling rate : 48.0 KHz
Bit depth : 24 bits
Compression mode : Lossy
Stream size : 939 MiB (14%)
Title : DTS 5.1 @ 1536 kbps
Language : English
Default : No
Forced : No
Text
ID : 4
Format : UTF-8
Codec ID : S_TEXT/UTF8
Codec ID/Info : UTF-8 Plain Text
Language : English
Default : No
Forced : No
[th]http://s61.radikal.ru/i174/1212/1d/144d25216e71.jpg[/th]
[th]http://s019.radikal.ru/i628/1212/1c/6999f5532e5f.jpg[/th]
[th]http://s006.radikal.ru/i214/1212/5a/58c75f47908e.jpg[/th]

[Цитировать]

Топик был перенесен из форума Новинки кинопроката (HD Video) в форум Мультфильмы (HD Video)
Bootch



Показать сообщения:    

Текущее время: 02-Дек 21:08

Часовой пояс: UTC + 3


Вы не можете начинать темы
Вы не можете отвечать на сообщения
Вы не можете редактировать свои сообщения
Вы не можете удалять свои сообщения
Вы не можете голосовать в опросах
Вы не можете прикреплять файлы к сообщениям
Вы не можете скачивать файлы

!ВНИМАНИЕ!
Сайт не предоставляет электронные версии произведений, а занимается лишь коллекционированием и каталогизацией ссылок, присылаемых и публикуемых на форуме нашими читателями. Если вы являетесь правообладателем какого-либо представленного материала и не желаете, чтобы ссылка на него находилась в нашем каталоге, свяжитесь с нами, и мы незамедлительно удалим ее. Файлы для обмена на трекере предоставлены пользователями сайта, и администрация не несет ответственности за их содержание. Просьба не заливать файлы, защищенные авторскими правами, а также файлы нелегального содержания!