[ Сегодня идет свободное скачивание без начисления Download ]


Статистика раздачи
Нет
 
   
 
Top  
 
 
• Супергёрл / Supergirl •Сезон 1 с 1 по 10 (из 20) Страна: США
Производство: Berlanti Productions, Warner Bros. Television
Год выпуска: 2015-2016
Жанр: фантастика, боевик, приключения
Режиссёр: Глен Винтер, Дермотт Даунс
В ролях: Мелисса Бенойст, Мехкад Брукс, Кайлер Ли, Дэвид Хэрвуд,Калиста Флокхарт, Джереми Джордан, Бриана Венскус, Малина Вайсман, Питер Фачинелли, Джей Джексон и др.
Перевод: Профессиональный (многоголосый, закадровый от Lostfilm)
Описание: Сериал расскажет о кузине Супермена и ее собственной супергеройской карьере.

Качество: WEB-DLRip
Продолжительность: по ~ 00:43:00
Формат: MP4
Видео кодек: H.264
Аудио кодек: AAC-LC
Свойства видео: 640x360 (16:9), 23.976 fps, 500-600 kbps (0.109 bit/pixel)
Свойства аудио: 48.0 KHz, 2 ch, 128 kbps

MediaInfo

General
Complete name : Supergirl.S01E01.WEB-DLRip.rus.LostFilm.TV.mp4
Format : MPEG-4
Format profile : Base Media
Codec ID : isom
File size : 243 MiB
Duration : 46mn 21s
Overall bit rate mode : Variable
Overall bit rate : 732 Kbps
Encoded date : UTC 2015-11-21 10:33:18
Tagged date : UTC 2015-11-21 10:33:18
Video
ID : 1
Format : AVC
Format/Info : Advanced Video Codec
Format profile : High@L4.1
Format settings, CABAC : Yes
Format settings, ReFrames : 9 frames
Codec ID : avc1
Codec ID/Info : Advanced Video Coding
Duration : 46mn 21s
Bit rate : 600 Kbps
Maximum bit rate : 1 434 Kbps
Width : 640 pixels
Height : 360 pixels
Display aspect ratio : 16:9
Frame rate mode : Constant
Frame rate : 23.976 fps
Color space : YUV
Chroma subsampling : 4:2:0
Bit depth : 8 bits
Scan type : Progressive
Bits/(Pixel*Frame) : 0.109
Stream size : 199 MiB (82%)
Title : 264@GPAC0.5.2-DEV-rev248-g39d5978-master
Writing library : x264 core 146 r2538 121396c
Encoding settings : cabac=1 / ref=9 / deblock=1:-3:-3 / analyse=0x3:0x113 / me=umh / subme=11 / psy=1 / psy_rd=1.00:0.00 / mixed_ref=1 / me_range=32 / chroma_me=1 / trellis=2 / 8x8dct=1 / cqm=0 / deadzone=21,11 / fast_pskip=0 / chroma_qp_offset=-2 / threads=6 / lookahead_threads=1 / sliced_threads=0 / nr=0 / decimate=0 / interlaced=0 / bluray_compat=0 / constrained_intra=0 / bframes=9 / b_pyramid=2 / b_adapt=2 / b_bias=0 / direct=3 / weightb=1 / open_gop=0 / weightp=2 / keyint=240 / keyint_min=23 / scenecut=40 / intra_refresh=0 / rc=2pass / mbtree=0 / bitrate=600 / ratetol=1.0 / qcomp=0.60 / qpmin=0 / qpmax=69 / qpstep=4 / cplxblur=20.0 / qblur=0.5 / ip_ratio=1.40 / pb_ratio=1.30 / aq=1:1.00
Encoded date : UTC 2015-11-21 10:33:18
Tagged date : UTC 2015-11-21 10:33:23
Audio
ID : 2
Format : AAC
Format/Info : Advanced Audio Codec
Format profile : LC
Codec ID : 40
Duration : 46mn 21s
Bit rate mode : Variable
Bit rate : 128 Kbps
Maximum bit rate : 177 Kbps
Channel(s) : 2 channels
Channel positions : Front: L R
Sampling rate : 48.0 KHz
Compression mode : Lossy
Stream size : 42.5 MiB (17%)
Encoded date : UTC 2015-11-21 09:10:16
Tagged date : UTC 2015-11-21 10:33:23

Скриншоты



Последний раз редактировалось: Henkok (2016-01-24 15:09), всего редактировалось 1 раз

[Цитировать]

Топик был перенесен из форума Зарубежные сериалы в форум Недооформленные торренты
Viktor1952



Показать сообщения:    

Текущее время: 07-Дек 21:19

Часовой пояс: UTC + 3


Вы не можете начинать темы
Вы не можете отвечать на сообщения
Вы не можете редактировать свои сообщения
Вы не можете удалять свои сообщения
Вы не можете голосовать в опросах
Вы не можете прикреплять файлы к сообщениям
Вы не можете скачивать файлы

!ВНИМАНИЕ!
Сайт не предоставляет электронные версии произведений, а занимается лишь коллекционированием и каталогизацией ссылок, присылаемых и публикуемых на форуме нашими читателями. Если вы являетесь правообладателем какого-либо представленного материала и не желаете, чтобы ссылка на него находилась в нашем каталоге, свяжитесь с нами, и мы незамедлительно удалим ее. Файлы для обмена на трекере предоставлены пользователями сайта, и администрация не несет ответственности за их содержание. Просьба не заливать файлы, защищенные авторскими правами, а также файлы нелегального содержания!