[ Сегодня идет свободное скачивание без начисления Download ]


Статистика раздачи
Нет
 
   
 
Top  
 
 
Лунная афера / Moonwalkers (2015) WEB-DLRip-AVC Информация о фильме
Название: Лунная афера
Оригинальное название: Moonwalkers
Год выхода: 2015
Жанр: Комедия
Режиссер: Антуан Бардо-Жаке
В ролях: Руперт Гринт, Рон Перлман, Роберт Шиэн, Стивен Кэмпбелл Мур, Том Ауденарт, Кевин Бишоп, Эрик Лёмпарт, Эрика Сэйнт, Джей Бенедикт, Джон Фландерс.
О фильме:
Тайный агент ЦРУ отправляется в Лондон, чтобы разыскать там Стэнли Кубрика и заказать ему фильм про высадку астронавтов на лунную поверхность на случай провала реальной миссии. Но вместо Кубрика агент нарывается на афериста Джонни, который устраивает съемки сверхсекретного видео на стремной студии порнофильмов, где невесомость достигается благодаря крепкому косяку…

Официальный сайт
Выпущено: Франция / Partizan Films, Nexus Factory, Potemkino
Продолжительность: 01:36:22
Перевод: Любительский одноголосый (kim-de-form_jr)
Файл
Формат: MKV
Качество: WEB-DLRip-AVC
Видео: MPEG-4 AVC , 1800 Кбит/с, 1024x428
Аудио 1: Русский (AC3, 2 ch, 192 Кбит/с) Любительский одноголосый (kim-de-form_jr)
Аудио 2: Английский (AC3, 6 ch, 384 Кбит/с) Оригинал
Субтитры: Русские, английские

MI

Общее
Уникальный идентификатор : 178750613859372552966244442148005129105 (0x867A1DB0ED3981B4AC5FA36C0052AB91)
Полное имя : E:Раздача-BDRipLunnaya. Afera.2015.WEB-DLRip-AVC.mkv
Формат : Matroska
Версия формата : Version 2
Размер файла : 1,60 Гбайт
Продолжительность : 1 ч. 36 м.
Общий поток : 2378 Кбит/сек
Название фильма : Лунная афера / Moonwalkers.2015.WEB-DLRip-AVC
Дата кодирования : UTC 2016-01-21 21:01:17
Программа кодирования : mkvmerge v5.8.0 ('No Sleep / Pillow') built on Sep 2 2012 15:37:04
Библиотека кодирования : libebml v1.2.3 + libmatroska v1.3.0
Обложка : Yes / Yes / Yes / Yes
Attachment : Yes
Видео
Идентификатор : 1
Формат : AVC
Формат/Информация : Advanced Video Codec
Профиль формата : High@L4.1
Параметр CABAC формата : Да
Параметр ReFrames формата : 10 кадров
Идентификатор кодека : V_MPEG4/ISO/AVC
Продолжительность : 1 ч. 36 м.
Битрейт : 1800 Кбит/сек
Ширина : 1024 пикселя
Высота : 428 пикселей
Соотношение сторон : 2,40:1
Режим частоты кадров : Постоянный
Частота кадров : 23,976 кадра/сек
Стандарт вещания : Component
Цветовое пространство : YUV
Субдискретизация насыщенности : 4:2:0
Битовая глубина : 8 бит
Тип развёртки : Прогрессивная
Бит/(Пиксели*Кадры) : 0.171
Размер потока : 1,18 Гбайт (74%)
Библиотека кодирования : x264 core 144 r2525
Настройки программы : cabac=1 / ref=10 / deblock=1:-2:-2 / analyse=0x3:0x112 / me=umh / subme=9 / psy=1 / psy_rd=1.00:1.00 / mixed_ref=0 / me_range=16 / chroma_me=1 / trellis=1 / 8x8dct=1 / cqm=0 / deadzone=21,11 / fast_pskip=1 / chroma_qp_offset=-4 / threads=6 / lookahead_threads=1 / sliced_threads=0 / nr=0 / decimate=1 / interlaced=0 / bluray_compat=0 / constrained_intra=0 / bframes=10 / b_pyramid=2 / b_adapt=2 / b_bias=6 / direct=3 / weightb=0 / open_gop=0 / weightp=1 / keyint=239 / keyint_min=23 / scenecut=49 / intra_refresh=0 / rc_lookahead=40 / rc=2pass / mbtree=1 / bitrate=1800 / ratetol=1.0 / qcomp=0.80 / qpmin=4 / qpmax=69 / qpstep=10 / cplxblur=20.0 / qblur=0.5 / ip_ratio=1.00 / aq=3:1.00
Язык : English
Default : Да
Forced : Нет
Аудио #1
Идентификатор : 2
Формат : [url=http://krutor.org/tag/1/AC-3]AC-3 [/url]
Формат/Информация : Audio Coding 3
Расширение режима : CM (complete main)
Параметр Endianness формата : Big
Идентификатор кодека : A_AC3
Продолжительность : 1 ч. 36 м.
Вид битрейта : Постоянный
Битрейт : 192 Кбит/сек
Каналы : 2 канала
Расположение каналов : Front: L R
Частота : 48,0 КГц
Битовая глубина : 16 бит
Метод сжатия : С потерями
Задержка видео : -83 мс.
Размер потока : 132 Мбайт (8%)
Заголовок : VO [kim-de-form_jr]
Язык : Russian
Default : Да
Forced : Нет
Аудио #2
Идентификатор : 3
Формат : [url=http://krutor.org/tag/1/AC-3]AC-3 [/url]
Формат/Информация : Audio Coding 3
Расширение режима : CM (complete main)
Параметр Endianness формата : Big
Идентификатор кодека : A_AC3
Продолжительность : 1 ч. 36 м.
Вид битрейта : Постоянный
Битрейт : 384 Кбит/сек
Каналы : 6 каналов
Расположение каналов : Front: L C R, Side: L R, LFE
Частота : 48,0 КГц
Битовая глубина : 16 бит
Метод сжатия : С потерями
Задержка видео : -83 мс.
Размер потока : 265 Мбайт (16%)
Язык : English
Default : Нет
Forced : Нет
Текст #1
Идентификатор : 4
Формат : [url=http://krutor.org/tag/1/UTF-8]UTF-8 [/url]
Идентификатор кодека : S_TEXT/UTF8
Идентификатор кодека/Информация : [url=http://krutor.org/tag/1/UTF-8]UTF-8 [/url] Plain Text
Заголовок : kim-de-form_jr
Язык : Russian
Default : Нет
Forced : Нет
Текст #2
Идентификатор : 5
Формат : [url=http://krutor.org/tag/1/UTF-8]UTF-8 [/url]
Идентификатор кодека : S_TEXT/UTF8
Идентификатор кодека/Информация : [url=http://krutor.org/tag/1/UTF-8]UTF-8 [/url] Plain Text
Язык : English
Default : Нет
Forced : Нет
Меню
00:00:00.000 : en:1
00:09:49.000 : en:2
00:19:25.000 : en:3
00:26:26.000 : en:4
00:33:08.000 : en:5
00:44:48.000 : en:6
00:53:43.000 : en:7
00:59:44.000 : en:8
01:08:03.000 : en:9
01:16:47.000 : en:10
01:23:17.000 : en:11
01:32:35.000 : en:12

Скриншоты

[Цитировать]



Показать сообщения:    

Текущее время: 09-Дек 06:48

Часовой пояс: UTC + 3


Вы не можете начинать темы
Вы не можете отвечать на сообщения
Вы не можете редактировать свои сообщения
Вы не можете удалять свои сообщения
Вы не можете голосовать в опросах
Вы не можете прикреплять файлы к сообщениям
Вы не можете скачивать файлы

!ВНИМАНИЕ!
Сайт не предоставляет электронные версии произведений, а занимается лишь коллекционированием и каталогизацией ссылок, присылаемых и публикуемых на форуме нашими читателями. Если вы являетесь правообладателем какого-либо представленного материала и не желаете, чтобы ссылка на него находилась в нашем каталоге, свяжитесь с нами, и мы незамедлительно удалим ее. Файлы для обмена на трекере предоставлены пользователями сайта, и администрация не несет ответственности за их содержание. Просьба не заливать файлы, защищенные авторскими правами, а также файлы нелегального содержания!