[ Сегодня идет свободное скачивание без начисления Download ]


Статистика раздачи
Качаю: [ 2 ]
Скачал: [ 8 ]
 
   
 
Top  
 
 
Magisters | Photoshop для веб-дизайнера (2015) PCRec - Автор (режиссер): Владислав Гриценко
Жанр: Веб-дизайн
Доп. материалы: Есть
Продолжительность: 05:40:08
Качество видео: PCRec
Видео: VP8, 1920x1080, 1920x1280, ~587-3061 kbps
Аудио: Vorbis, 2 ch, 160-500 kbps, VBR
Описание:
Данный курс рассчитан на изучение программы Photoshop с абсолютного нуля. Даже если Вы его до этого момента ни разу не открывали, после прохождения этого курса, Вы будете уверенно им пользоваться на уровне веб-дизайнера.
В этом курсе будет освещено много интересных моментов, вот некоторые из них:
Как создать и подготовить новый документ в Photoshop для нашей цели
Из чего состоит .PSD документ и как с ним работать
Как правильно подойти к процессу веб-дизайна
Какие инструменты необходимы для создания того или иного элемента
И это далеко не весь перечень материала. В итоге этого курса "Photoshop для веб-дизайнера" мы создадим дизайн для сайта с абсолютного нуля, используя лишь несколько изображений.

Программа курса:

01. Введение в курс
02. Дополнительные материалы
03. Интерфейс программы
04. Анатомия PSD-документа
05. Создание PSD-документа
06. Сетка и линейки
07. Панель истории
08. Работа с цветом
09. Использование и создание узоров
10. Обзор прототипа и подготовка к работе
11. Создание дизайна шапки сайта
12. Создание слайдера контента
13. Шрифтовые иконки для дизайна
14. Создание формы поиска
15. Блок новой недвижимости
16. Блок преимуществ компании
17. Блок лучших агентов
18. Блок новостей и отзывов
19. Создание подвала сайта
20. Заключение и напутствие
21. Коллекция современных шрифтов

Mediainfo:

Общее
Уникальный идентификатор : 310266948210153296575854451962515051980 (0xE96B3D9A00E91E101FE4D30B52F455CC)
Полное имя : C:\Photoshop для веб-дизайнера - 2015\06. Сетка и линейки.webm
Формат : WebM
Версия формата : Version 2
Размер файла : 134 Мбайт
Продолжительность : 16 м.
Режим общего битрейта : Переменный
Общий поток : 1141 Кбит/сек
Программа кодирования : Lavf52.73.0
Библиотека кодирования : Lavf52.73.0
Видео
Идентификатор : 1
Формат : VP8
Идентификатор кодека : V_VP8
Продолжительность : 16 м.
Битрейт : 587 Кбит/сек
Ширина : 1920 пикселей
Высота : 1080 пикселей
Соотношение сторон : 16:9
Режим частоты кадров : Постоянный
Частота кадров : 30,000 кадров/сек
Метод сжатия : С потерями
Бит/(Пиксели*Кадры) : 0.009
Размер потока : 69,2 Мбайт (51%)
Язык : English
Default : Да
Forced : Нет
Аудио
Идентификатор : 2
Формат : Vorbis
Параметр Floor формата : 1
Идентификатор кодека : A_VORBIS
Продолжительность : 16 м.
Вид битрейта : Переменный
Битрейт : 500 Кбит/сек
Каналы : 2 канала
Частота : 44,1 КГц
Метод сжатия : С потерями
Размер потока : 58,9 Мбайт (44%)
Программа кодирования : Lavc52.83.0
Библиотека кодирования : libVorbis (Everywhere) (20100325 (Everywhere))
Язык : English
Default : Да
Forced : Нет[/code]
[code]Общее
Уникальный идентификатор : 52991540890890976617925531477249889124 (0x27DDCCAEA8F0030C96AADA4E0DF01364)
Полное имя : C:\Photoshop для веб-дизайнера - 2015\01. Введение в курс.webm
Формат : WebM
Версия формата : Version 2
Размер файла : 39,1 Мбайт
Продолжительность : 1 м. 37 с.
Режим общего битрейта : Переменный
Общий поток : 3363 Кбит/сек
Программа кодирования : Lavf56.1.100
Библиотека кодирования : Lavf56.1.100
Видео
Идентификатор : 1
Формат : VP8
Идентификатор кодека : V_VP8
Продолжительность : 1 м. 37 с.
Битрейт : 3061 Кбит/сек
Ширина : 1920 пикселей
Высота : 1280 пикселей
Соотношение сторон : 16:9
Режим частоты кадров : Постоянный
Частота кадров : 30,000 кадров/сек
Метод сжатия : С потерями
Бит/(Пиксели*Кадры) : 0.042
Размер потока : 35,6 Мбайт (91%)
Язык : English
Default : Да
Forced : Нет
Аудио
Идентификатор : 2
Формат : Vorbis
Параметр Floor формата : 1
Идентификатор кодека : A_VORBIS
Продолжительность : 1 м. 37 с.
Вид битрейта : Переменный
Битрейт : 160 Кбит/сек
Каналы : 2 канала
Частота : 48,0 КГц
Метод сжатия : С потерями
Задержка видео : -3 мс.
Размер потока : 1,86 Мбайт (5%)
Программа кодирования : Lavc56.0.101
Библиотека кодирования : libVorbis (TurpakГ¤rГ¤jiin) (20140122 (TurpakГ¤rГ¤jiin))
Язык : English
Default : Да
Forced : Нет
Скриншоты:

[Цитировать]



Показать сообщения:    

Текущее время: 04-Дек 13:21

Часовой пояс: UTC + 3


Вы не можете начинать темы
Вы не можете отвечать на сообщения
Вы не можете редактировать свои сообщения
Вы не можете удалять свои сообщения
Вы не можете голосовать в опросах
Вы не можете прикреплять файлы к сообщениям
Вы не можете скачивать файлы

!ВНИМАНИЕ!
Сайт не предоставляет электронные версии произведений, а занимается лишь коллекционированием и каталогизацией ссылок, присылаемых и публикуемых на форуме нашими читателями. Если вы являетесь правообладателем какого-либо представленного материала и не желаете, чтобы ссылка на него находилась в нашем каталоге, свяжитесь с нами, и мы незамедлительно удалим ее. Файлы для обмена на трекере предоставлены пользователями сайта, и администрация не несет ответственности за их содержание. Просьба не заливать файлы, защищенные авторскими правами, а также файлы нелегального содержания!