[ Сегодня идет свободное скачивание без начисления Download ]


Статистика раздачи
Нет
 
   
 
Top  
 
 
Анаклет: Секретный агент / Anacleto: Agente secreto (2015) HDRip - Производство: Испания
Жанр: Комедия, Боевик
Режиссер: Хавьер Руис Кальдера
Продюсер: Франсиско Рамос, Гэбриель Ариас-Сальгадо, Энеко Гутьеррес
Актеры: Иманоль Ариас, Ким Гутьеррес, Росси де Пальма, Карлос Аресес, Александра Хименес, Сильвия Абриль, Хосе Корбачо, Эмилио Гутьеррес Каба, Берто Ромеро, Эдуардо Гомес
Описание:
Секретный агент с позывным Анаклет встречается со своим заклятым врагом Баскесом, которого он 30 лет назад посадил в тюрьму. Но теперь тот сбежал оттуда и жаждет мести. Под угрозой жизнь Адольфо - сына Анаклета. Парень работает в службе безопасности и не догадывается о том, кто на самом деле его отец. Ведь Адольфо считает его простым фермером. Теперь настало время раскрыть все тайны и вместе бороться против головорезов. Адольфо не ожидал, что его отец настолько крут. Однако, помимо противостоянию Баскесу, Адольфо пытается вернуть свою любимую
Дата мировой премьеры: 4 сентября 2015
Продолжительность: 01:33:13
Качество видео: HDRip Сэмпл
Перевод: Двуголосый закадровый, любительский (Parovoz Production)
Вид субтитров: Отсутствуют
Реклама: Присутствуют только текстовые вставки рекламы.
Видео: Xvid, 720x304, ~1895 Кбит/с
Аудио: AC3, 2 ch, 192 Кбит/с, CBR

Mediainfo:

Общее
Полное имя                               : D:\FILMЬl\2016 MONK\Anacleto Agente secreto\Anacleto.Agente.secreto.RU.avi
Формат                                   : AVI
Формат/Информация                        : Audio Video Interleave
Размер файла                             : 1,37 Гбайт
Продолжительность                        : 1 ч. 33 м.
Общий поток                              : 2096 Кбит/сек
Программа кодирования                    : VirtualDubMod 1.5.10.2 (build 2542/release)
Библиотека кодирования                   : VirtualDubMod build 2542/release
Видео
Идентификатор                            : 0
Формат                                   : MPEG-4 Visual
Профиль формата                          : Advanced Simple@L5
Параметр BVOP формата                    : 2
Параметр QPel формата                    : Нет
Параметр GMC формата                     : Без точки перехода
Параметр матрицы формата                 : Default (MPEG)
Идентификатор кодека                     : XVID
Идентификатор кодека/Подсказка           : XviD
Продолжительность                        : 1 ч. 33 м.
Битрейт                                  : 1895 Кбит/сек
Ширина                                   : 720 пикселей
Высота                                   : 304 пикселя
Соотношение сторон                       : 2,35:1
Частота кадров                           : 23,976 кадра/сек
Цветовое пространство                    : YUV
Субдискретизация насыщенности            : 4:2:0
Битовая глубина                          : 8 бит
Тип развёртки                            : Прогрессивная
Метод сжатия                             : С потерями
Бит/(Пиксели*Кадры)                      : 0.361
Размер потока                            : 1,23 Гбайт (90%)
Библиотека кодирования                   : XviD 1.2.1 (UTC 2008-12-04)
Аудио
Идентификатор                            : 1
Формат                                   : AC-3
Формат/Информация                        : Audio Coding 3
Расширение режима                        : CM (complete main)
Параметр Endianness формата              : Big
Идентификатор кодека                     : 2000
Продолжительность                        : 1 ч. 33 м.
Вид битрейта                             : Постоянный
Битрейт                                  : 192 Кбит/сек
Каналы                                   : 2 канала
Расположение каналов                     : Front: L R
Частота                                  : 48,0 КГц
Метод сжатия                             : С потерями
Размер потока                            : 128 Мбайт (9%)
Выравнивание                             : Разделение по промежуткам
Продолжительность промежутка             : 42  мс. (1,00 видеокадр)
Время предзагрузки промежутка            : 500  мс.
Скриншоты:

[Цитировать]

Топик был перенесен из форума Новинки кинопроката в форум Комедия
Henkok



Показать сообщения:    

Текущее время: 10-Дек 08:05

Часовой пояс: UTC + 3


Вы не можете начинать темы
Вы не можете отвечать на сообщения
Вы не можете редактировать свои сообщения
Вы не можете удалять свои сообщения
Вы не можете голосовать в опросах
Вы не можете прикреплять файлы к сообщениям
Вы не можете скачивать файлы

!ВНИМАНИЕ!
Сайт не предоставляет электронные версии произведений, а занимается лишь коллекционированием и каталогизацией ссылок, присылаемых и публикуемых на форуме нашими читателями. Если вы являетесь правообладателем какого-либо представленного материала и не желаете, чтобы ссылка на него находилась в нашем каталоге, свяжитесь с нами, и мы незамедлительно удалим ее. Файлы для обмена на трекере предоставлены пользователями сайта, и администрация не несет ответственности за их содержание. Просьба не заливать файлы, защищенные авторскими правами, а также файлы нелегального содержания!