[ Сегодня идет свободное скачивание без начисления Download ]


Статистика раздачи
Нет
 
   
 
Top  
 
 
-Марсианин / The Martian «Верните его домой»- Производство: США, Великобритания / 20th Century Fox Film Corporation, Genre Films, International Traders
Жанр: фантастика, приключения
Режиссер: Ридли Скотт
Продюсер: Марк Хаффам, Саймон Кинберг, Майкл Шефер
Актеры: Мэтт Дэймон, Джессика Честейн, Чиветель Эджиофор, Кристен Уиг, Джефф Дэниелс, Майкл Пенья, Шон Бин, Кейт Мара, Себастьян Стэн, Аксель Хенни
Описание:
Марсианская миссия «Арес-3» в процессе работы была вынуждена экстренно покинуть планету из-за надвигающейся песчаной бури. Инженер и биолог Марк Уотни получил повреждение скафандра во время песчаной бури. Сотрудники миссии, посчитав его погибшим, эвакуировались с планеты, оставив Марка одного.
Очнувшись, Уотни обнаруживает, что связь с Землёй отсутствует, но при этом полностью функционирует жилой модуль. Главный герой начинает искать способ продержаться на имеющихся запасах еды, витаминов, воды и воздуха ещё 4 года до прилёта следующей миссии «Арес-4».

Рейтинг MPAA: PG-13 - детям до 13 лет просмотр не желателен
Дата мировой премьеры: 11 сентября 2015
Дата российской премьеры: 8 октября 2015, «Двадцатый Век Фокс СНГ» 3D

Продолжительность: 02:21:51
Качество: BDRip 3D (1080p)
Перевод: Профессиональный (полное дублирование) (Лицензия BD EUR)
Вид субтитров: Вшитые, отключаемые
Язык субтитров: Русский, Украинский, Английский
Видео: MPEG-4 AVC/H.264, 1920x1080p, (16:9), 12.1 Mbps, 23.976 fps, 0.244 b/px
Аудио: DTS, 6 ch, 768 kbps - Русский
Аудио: AC3, 6 ch, 448 kbps - Русский
Аудио: AC3, 6 ch, 448 kbps - Украинский
Аудио: DTS, 6 ch, 1509 kbps - Английский

MediaInfo:

General
Unique ID : 232327081091811074682164149885318374879 (0xAEC89177F58537E9B4FDA51981FAA5DF)
Complete name : TheMartian(2015)3D-halfOU.mkv
Format : Matroska
Format version : Version 2
File size : 15.4 GiB
Duration : 2h 21mn
Overall bit rate : 15.6 Mbps
Movie name : Марсианин / The Martian (2015) в 3Д
Encoded date : UTC 2016-01-09 18:27:18
Writing application : mkvmerge v7.9.0 ('Birds') 64bit
Writing library : libebml v1.3.1 + libmatroska v1.4.2
Attachements : __ENCODE_3D_MOVIE.avs / __ENCODE_3D.cmd / 3D-Planes.zip
Video
ID : 1
Format : AVC
Format/Info : Advanced Video Codec
Format profile : High@L4.1
Format settings, CABAC : Yes
Format settings, ReFrames : 4 frames
Codec ID : V_MPEG4/ISO/AVC
Duration : 2h 21mn
Bit rate : 12.1 Mbps
Width : 1 920 pixels
Height : 1 080 pixels
Display aspect ratio : 16:9
Frame rate mode : Constant
Frame rate : 23.976 fps
Color space : YUV
Chroma subsampling : 4:2:0
Bit depth : 8 bits
Scan type : Progressive
Bits/(Pixel*Frame) : 0.244
Stream size : 12.0 GiB (78%)
Title : BDRip by Ash61
Writing library : x264 core 146 r2538 121396c
Encoding settings : cabac=1 / ref=4 / deblock=1:-3:-3 / analyse=0x3:0x113 / me=umh / subme=10 / psy=1 / psy_rd=1.00:0.00 / mixed_ref=1 / me_range=32 / chroma_me=1 / trellis=2 / 8x8dct=1 / cqm=0 / deadzone=21,11 / fast_pskip=1 / chroma_qp_offset=-2 / threads=12 / lookahead_threads=3 / sliced_threads=0 / nr=0 / decimate=1 / interlaced=0 / bluray_compat=0 / constrained_intra=0 / bframes=11 / b_pyramid=2 / b_adapt=2 / b_bias=0 / direct=3 / weightb=1 / open_gop=0 / weightp=2 / keyint=250 / keyint_min=23 / scenecut=40 / intra_refresh=0 / rc_lookahead=60 / rc=crf / mbtree=1 / crf=15.5 / qcomp=0.70 / qpmin=0 / qpmax=69 / qpstep=4 / vbv_maxrate=40000 / vbv_bufsize=30000 / crf_max=0.0 / nal_hrd=none / filler=0 / frame-packing=4 / ip_ratio=1.40 / aq=1:0.70
Language : English
Default : Yes
Forced : No
Audio #1
ID : 2
Format : DTS
Format/Info : Digital Theater Systems
Mode : 16
Format settings, Endianness : Big
Codec ID : A_DTS
Duration : 2h 21mn
Bit rate mode : Constant
Bit rate : 768 Kbps
Channel(s) : 6 channels
Channel positions : Front: L C R, Side: L R, LFE
Sampling rate : 48.0 KHz
Bit depth : 24 bits
Compression mode : Lossy
Stream size : 778 MiB (5%)
Title : BD EUR
Language : Russian
Default : Yes
Forced : No
Audio #2
ID : 3
Format : AC-3
Format/Info : Audio Coding 3
Mode extension : CM (complete main)
Format settings, Endianness : Big
Codec ID : A_AC3
Duration : 2h 21mn
Bit rate mode : Constant
Bit rate : 448 Kbps
Channel(s) : 6 channels
Channel positions : Front: L C R, Side: L R, LFE
Sampling rate : 48.0 KHz
Bit depth : 16 bits
Compression mode : Lossy
Stream size : 454 MiB (3%)
Language : Russian
Default : No
Forced : No
Audio #3
ID : 4
Format : AC-3
Format/Info : Audio Coding 3
Mode extension : CM (complete main)
Format settings, Endianness : Big
Codec ID : A_AC3
Duration : 2h 21mn
Bit rate mode : Constant
Bit rate : 448 Kbps
Channel(s) : 6 channels
Channel positions : Front: L C R, Side: L R, LFE
Sampling rate : 48.0 KHz
Bit depth : 16 bits
Compression mode : Lossy
Stream size : 454 MiB (3%)
Title : BD EUR
Language : Ukrainian
Default : No
Forced : No
Audio #4
ID : 5
Format : DTS
Format/Info : Digital Theater Systems
Mode : 16
Format settings, Endianness : Big
Codec ID : A_DTS
Duration : 2h 21mn
Bit rate mode : Constant
Bit rate : 1 509 Kbps
Channel(s) : 6 channels
Channel positions : Front: L C R, Side: L R, LFE
Sampling rate : 48.0 KHz
Bit depth : 24 bits
Compression mode : Lossy
Stream size : 1.49 GiB (10%)
Title : English DTS Core 5.1 @1509 Kbps
Language : English
Default : No
Forced : No
Text #1
ID : 6
Format : UTF-8
Codec ID : S_TEXT/UTF8
Codec ID/Info : UTF-8 Plain Text
Language : Russian
Default : Yes
Forced : No
Text #2
ID : 7
Format : UTF-8
Codec ID : S_TEXT/UTF8
Codec ID/Info : UTF-8 Plain Text
Language : Russian
Default : No
Forced : No
Text #3
ID : 8
Format : UTF-8
Codec ID : S_TEXT/UTF8
Codec ID/Info : UTF-8 Plain Text
Language : Ukrainian
Default : No
Forced : No
Text #4
ID : 9
Format : UTF-8
Codec ID : S_TEXT/UTF8
Codec ID/Info : UTF-8 Plain Text
Language : Ukrainian
Default : No
Forced : No
Text #5
ID : 10
Format : UTF-8
Codec ID : S_TEXT/UTF8
Codec ID/Info : UTF-8 Plain Text
Language : English
Default : No
Forced : No
Menu
00:00:00.000 : en:Chapter 01
00:03:22.285 : en:Chapter 03
00:10:08.983 : en:Chapter 05
00:15:24.590 : en:Chapter 07
00:18:25.187 : en:Chapter 09
00:21:34.376 : en:Chapter 11
00:24:28.091 : en:Chapter 13
00:28:52.689 : en:Chapter 15
00:31:36.644 : en:Chapter 17
00:34:21.100 : en:Chapter 19
00:39:13.434 : en:Chapter 21
00:41:21.770 : en:Chapter 23
00:46:23.530 : en:Chapter 25
00:49:25.087 : en:Chapter 27
00:56:15.747 : en:Chapter 29
00:59:40.493 : en:Chapter 31
01:02:23.823 : en:Chapter 33
01:06:53.134 : en:Chapter 35
01:09:52.980 : en:Chapter 37
01:13:51.301 : en:Chapter 39
01:18:38.255 : en:Chapter 41
01:22:52.467 : en:Chapter 43
01:30:41.269 : en:Chapter 45
01:37:30.094 : en:Chapter 47
01:43:31.997 : en:Chapter 49
01:46:16.286 : en:Chapter 51
01:50:18.737 : en:Chapter 53
01:54:07.966 : en:Chapter 55
01:57:49.312 : en:Chapter 57
02:04:41.682 : en:Chapter 59
02:11:05.732 : en:Chapter 61
02:13:28.792 : en:Chapter 63
02:21:37.322 : en:Chapter 64

Скриншоты

[Цитировать]



Показать сообщения:    

Текущее время: 07-Дек 23:14

Часовой пояс: UTC + 3


Вы не можете начинать темы
Вы не можете отвечать на сообщения
Вы не можете редактировать свои сообщения
Вы не можете удалять свои сообщения
Вы не можете голосовать в опросах
Вы не можете прикреплять файлы к сообщениям
Вы не можете скачивать файлы

!ВНИМАНИЕ!
Сайт не предоставляет электронные версии произведений, а занимается лишь коллекционированием и каталогизацией ссылок, присылаемых и публикуемых на форуме нашими читателями. Если вы являетесь правообладателем какого-либо представленного материала и не желаете, чтобы ссылка на него находилась в нашем каталоге, свяжитесь с нами, и мы незамедлительно удалим ее. Файлы для обмена на трекере предоставлены пользователями сайта, и администрация не несет ответственности за их содержание. Просьба не заливать файлы, защищенные авторскими правами, а также файлы нелегального содержания!