[ Сегодня идет свободное скачивание без начисления Download ]


Статистика раздачи
Скачал: [ 1 ]
 
   
 
Top  
 
 
Sandra / Stay In Touch (2 CD, Deluxe Edition)-Жанр: Pop
Год выпуска диска: 2012
Производитель диска: Germany
Издатель (лейбл): EMI / Virgin
Номер по каталогу: 5099901597424-Аудиокодек: FLAC (*.flac)
Тип рипа: tracks+.cue
Битрейт аудио: lossless
Продолжительность: 01:43:04
Источник: собственный рип
Наличие сканов в содержимом раздачи: да (Front/Back/CD)-
MP3: (Pop, Eurodance, Disco) Sandra - Stay In Touch (Deluxe Edition) Digipack 2CD - 2012, MP3 (tracks), 320 kbps

Треклист CD 1

01. Stay In Touch [0:03:50.72]
02. Infinite Kiss [0:02:53.39]
03. Between Me & The Moon [0:03:24.45]
04. Maybe Tonight [0:03:07.15]
05. Moscow Nights [0:03:43.49]
06. Heart Of Wax [0:04:17.53]
07. Kings & Queens [0:03:18.43]
08. Angels In My Head [0:02:57.12]
09. Sand Heart [0:03:50.32]
10. Love Starts With A Smile [0:03:28.20]
11. Sun In Disguise [0:04:23.64]

Треклист CD 2

01. Moscow Nights (Extended Version) [0:05:15.19]
02. Kings & Queens (Extended Version) [0:06:26.72]
03. Love Starts With A Smile (Extended Version) [0:05:42.25]
04. Angels In My Head (Extended Version) [0:05:34.42]
05. Stay In Touch (Extended Version) [0:05:38.42]
06. Between Me & The Moon (Extended Version) [0:05:26.57]
07. Sun In Disguise (Extended Version) [0:05:58.06]
08. Maybe Tonight (Extended Version) [0:04:57.70]
09. Infinite Kiss (Extended Version) [0:05:17.32]
10. Sand Heart (Extended Version) [0:06:19.29]
11. Heart Of Wax (Extended Version) [0:07:10.16]

Превью сканов

-

Лог создания рипа CD 1

Exact Audio Copy V1.0 beta 3 from 29. August 2011
EAC extraction logfile from 29. October 2012, 12:30
Sandra / Stay In Touch
Used drive : TSSTcorpCD/DVDW SH-S182M Adapter: 0 ID: 0
Read mode : SecureUtilize accurate stream : YesDefeat audio cache : YesMake use of C2 pointers : No
Read offset correction : 6Overread into Lead-In and Lead-Out : NoFill up missing offset samples with silence : YesDelete leading and trailing silent blocks : NoNull samples used in CRC calculations : YesUsed interface : Native Win32 interface for Win NT & 2000Gap handling : Appended to previous track
Used output format : User Defined EncoderSelected bitrate : 1024 kBit/sQuality : HighAdd ID3 tag : NoCommand line compressor : C:\Program Files\Exact Audio Copy\Flac\flac.exeAdditional command line options : -8 -V -T "ARTIST=%artist%" -T "TITLE=%title%" -T "ALBUM=%albumtitle%" -T "DATE=%year%" -T "TRACKNUMBER=%tracknr%"-T "GENRE=%genre%" -T "PERFORMER=%albuminterpret%" -T "COMPOSER=%composer%" %source% -o %dest%
TOC of the extracted CD
Track | Start | Length | Start sector | End sector --------------------------------------------------------- 1 | 0:00.00 | 3:50.72 | 0 | 17321 2 | 3:50.72 | 2:53.39 | 17322 | 30335 3 | 6:44.36 | 3:24.45 | 30336 | 45680 4 | 10:09.06 | 3:07.15 | 45681 | 59720 5 | 13:16.21 | 3:43.49 | 59721 | 76494 6 | 16:59.70 | 4:17.53 | 76495 | 95822 7 | 21:17.48 | 3:18.43 | 95823 | 110715 8 | 24:36.16 | 2:57.12 | 110716 | 124002 9 | 27:33.28 | 3:50.32 | 124003 | 141284 10 | 31:23.60 | 3:28.20 | 141285 | 156904 11 | 34:52.05 | 4:23.64 | 156905 | 176693
Track 1
Filename C:\Music\01 - Stay In Touch.wav
Pre-gap length 0:00:02.00
Peak level 96.6 % Extraction speed 3.7 X Track quality 100.0 % Test CRC 96C72CF6 Copy CRC 96C72CF6 Track not present in AccurateRip database Copy OK
Track 2
Filename C:\Music\02 - Infinite Kiss.wav
Pre-gap length 0:00:01.74
Peak level 96.6 % Extraction speed 4.3 X Track quality 100.0 % Test CRC E72D21A9 Copy CRC E72D21A9 Track not present in AccurateRip database Copy OK
Track 3
Filename C:\Music\03 - Between Me & The Moon.wav
Pre-gap length 0:00:01.74
Peak level 96.6 % Extraction speed 4.8 X Track quality 100.0 % Test CRC FDA72049 Copy CRC FDA72049 Track not present in AccurateRip database Copy OK
Track 4
Filename C:\Music\04 - Maybe Tonight.wav
Pre-gap length 0:00:01.74
Peak level 96.6 % Extraction speed 4.3 X Track quality 99.9 % Test CRC E477CBDA Copy CRC E477CBDA Track not present in AccurateRip database Copy OK
Track 5
Filename C:\Music\05 - Moscow Nights.wav
Pre-gap length 0:00:01.74
Peak level 96.6 % Extraction speed 5.5 X Track quality 100.0 % Test CRC FE092DA6 Copy CRC FE092DA6 Track not present in AccurateRip database Copy OK
Track 6
Filename C:\Music\06 - Heart Of Wax.wav
Pre-gap length 0:00:01.74
Peak level 96.6 % Extraction speed 5.9 X Track quality 100.0 % Test CRC 704710E8 Copy CRC 704710E8 Track not present in AccurateRip database Copy OK
Track 7
Filename C:\Music\07 - Kings & Queens.wav
Pre-gap length 0:00:01.74
Peak level 96.6 % Extraction speed 5.9 X Track quality 100.0 % Test CRC A0C01E87 Copy CRC A0C01E87 Track not present in AccurateRip database Copy OK
Track 8
Filename C:\Music\08 - Angels In My Head.wav
Pre-gap length 0:00:01.74
Peak level 96.6 % Extraction speed 6.0 X Track quality 100.0 % Test CRC E5AA07E5 Copy CRC E5AA07E5 Track not present in AccurateRip database Copy OK
Track 9
Filename C:\Music\09 - Sand Heart.wav
Pre-gap length 0:00:01.74
Peak level 96.6 % Extraction speed 5.8 X Track quality 99.9 % Test CRC 13B395B9 Copy CRC 13B395B9 Track not present in AccurateRip database Copy OK
Track 10
Filename C:\Music\10 - Love Starts With A Smile.wav
Pre-gap length 0:00:01.74
Peak level 96.6 % Extraction speed 6.6 X Track quality 100.0 % Test CRC 5E95D809 Copy CRC 5E95D809 Track not present in AccurateRip database Copy OK
Track 11
Filename C:\Music\11 - Sun In Disguise.wav
Pre-gap length 0:00:01.74
Peak level 96.6 % Extraction speed 7.1 X Track quality 100.0 % Test CRC 3D4B48B7 Copy CRC 3D4B48B7 Track not present in AccurateRip database Copy OK
None of the tracks are present in the AccurateRip database
No errors occurred
End of status report
==== Log checksum 8792D169FF9E6C4FAC162B9544877200409687E7F486817A5D728BF367F95265 ====

Лог создания рипа CD 2

Exact Audio Copy V1.0 beta 3 from 29. August 2011
EAC extraction logfile from 29. October 2012, 12:53
Sandra / Stay in Touch - Deluxe CD 2
Used drive : TSSTcorpCD/DVDW SH-S182M Adapter: 0 ID: 0
Read mode : SecureUtilize accurate stream : YesDefeat audio cache : YesMake use of C2 pointers : No
Read offset correction : 6Overread into Lead-In and Lead-Out : NoFill up missing offset samples with silence : YesDelete leading and trailing silent blocks : NoNull samples used in CRC calculations : YesUsed interface : Native Win32 interface for Win NT & 2000Gap handling : Appended to previous track
Used output format : User Defined EncoderSelected bitrate : 1024 kBit/sQuality : HighAdd ID3 tag : NoCommand line compressor : C:\Program Files\Exact Audio Copy\Flac\flac.exeAdditional command line options : -8 -V -T "ARTIST=%artist%" -T "TITLE=%title%" -T "ALBUM=%albumtitle%" -T "DATE=%year%" -T "TRACKNUMBER=%tracknr%"-T "GENRE=%genre%" -T "PERFORMER=%albuminterpret%" -T "COMPOSER=%composer%" %source% -o %dest%
TOC of the extracted CD
Track | Start | Length | Start sector | End sector --------------------------------------------------------- 1 | 0:00.00 | 5:15.19 | 0 | 23643 2 | 5:15.19 | 6:26.72 | 23644 | 52665 3 | 11:42.16 | 5:42.25 | 52666 | 78340 4 | 17:24.41 | 5:34.42 | 78341 | 103432 5 | 22:59.08 | 5:38.42 | 103433 | 128824 6 | 28:37.50 | 5:26.57 | 128825 | 153331 7 | 34:04.32 | 5:58.06 | 153332 | 180187 8 | 40:02.38 | 4:57.70 | 180188 | 202532 9 | 45:00.33 | 5:17.32 | 202533 | 226339 10 | 50:17.65 | 6:19.29 | 226340 | 254793 11 | 56:37.19 | 7:10.16 | 254794 | 287059
Track 1
Filename C:\Music\01 - Moscow Nights (Extended Version).wav
Pre-gap length 0:00:02.00
Peak level 96.6 % Extraction speed 4.0 X Track quality 100.0 % Test CRC 42AA123B Copy CRC 42AA123B Track not present in AccurateRip database Copy OK
Track 2
Filename C:\Music\02 - Kings & Queens (Extended Version).wav
Pre-gap length 0:00:02.00
Peak level 96.6 % Extraction speed 4.9 X Track quality 100.0 % Test CRC 95641CE9 Copy CRC 95641CE9 Track not present in AccurateRip database Copy OK
Track 3
Filename C:\Music\03 - Love Starts With A Smile (Extended Version).wav
Pre-gap length 0:00:01.74
Peak level 96.6 % Extraction speed 5.7 X Track quality 100.0 % Test CRC 0A9503D9 Copy CRC 0A9503D9 Track not present in AccurateRip database Copy OK
Track 4
Filename C:\Music\04 - Angels In My Head (Extended Version).wav
Pre-gap length 0:00:02.00
Peak level 96.6 % Extraction speed 6.1 X Track quality 100.0 % Test CRC A144245A Copy CRC A144245A Track not present in AccurateRip database Copy OK
Track 5
Filename C:\Music\05 - Stay In Touch (Extended Version).wav
Pre-gap length 0:00:01.74
Peak level 96.6 % Extraction speed 6.6 X Track quality 100.0 % Test CRC F4FC8B51 Copy CRC F4FC8B51 Track not present in AccurateRip database Copy OK
Track 6
Filename C:\Music\06 - Between Me & The Moon (Extended Version).wav
Pre-gap length 0:00:01.74
Peak level 96.6 % Extraction speed 6.9 X Track quality 100.0 % Test CRC ACE180FD Copy CRC ACE180FD Track not present in AccurateRip database Copy OK
Track 7
Filename C:\Music\07 - Sun In Disguise (Extended Version).wav
Pre-gap length 0:00:01.73
Peak level 96.6 % Extraction speed 7.4 X Track quality 100.0 % Test CRC 74AD2F3D Copy CRC 74AD2F3D Track not present in AccurateRip database Copy OK
Track 8
Filename C:\Music\08 - Maybe Tonight (Extended Version).wav
Pre-gap length 0:00:01.73
Peak level 97.7 % Extraction speed 7.4 X Track quality 100.0 % Test CRC 0A49315B Copy CRC 0A49315B Track not present in AccurateRip database Copy OK
Track 9
Filename C:\Music\09 - Infinite Kiss (Extended Version).wav
Pre-gap length 0:00:01.73
Peak level 96.6 % Extraction speed 7.8 X Track quality 100.0 % Test CRC CD5E185C Copy CRC CD5E185C Track not present in AccurateRip database Copy OK
Track 10
Filename C:\Music\10 - Sand Heart (Extended Version).wav
Pre-gap length 0:00:01.73
Peak level 96.6 % Extraction speed 6.5 X Track quality 100.0 % Test CRC 327901B7 Copy CRC 327901B7 Track not present in AccurateRip database Copy OK
Track 11
Filename C:\Music\11 - Heart Of Wax (Extended Version).wav
Pre-gap length 0:00:01.74
Peak level 96.6 % Extraction speed 5.2 X Track quality 100.0 % Test CRC EC85B7A7 Copy CRC EC85B7A7 Track not present in AccurateRip database Copy OK
None of the tracks are present in the AccurateRip database
No errors occurred
End of status report
==== Log checksum A00EA66A9A6004C94BDA83E31F518D5281115E7E6A309F1996277453689BB0D1 ====

Содержание индексной карты (.CUE) CD 1

REM GENRE PopREM DATE 2012REM DISCID 9409330BREM COMMENT "ExactAudioCopy v1.0b3"PERFORMER "Sandra"TITLE "Stay In Touch"FILE "01 - Stay In Touch.wav" WAVE TRACK 01 AUDIO TITLE "Stay In Touch" PERFORMER "Sandra" FLAGS DCP INDEX 01 00:00:00 TRACK 02 AUDIO TITLE "Infinite Kiss" PERFORMER "Sandra" FLAGS DCP INDEX 00 03:48:73FILE "02 - Infinite Kiss.wav" WAVE INDEX 01 00:00:00 TRACK 03 AUDIO TITLE "Between Me & The Moon" PERFORMER "Sandra" FLAGS DCP INDEX 00 02:51:40FILE "03 - Between Me & The Moon.wav" WAVE INDEX 01 00:00:00 TRACK 04 AUDIO TITLE "Maybe Tonight" PERFORMER "Sandra" FLAGS DCP INDEX 00 03:22:46FILE "04 - Maybe Tonight.wav" WAVE INDEX 01 00:00:00 TRACK 05 AUDIO TITLE "Moscow Nights" PERFORMER "Sandra" FLAGS DCP INDEX 00 03:05:16FILE "05 - Moscow Nights.wav" WAVE INDEX 01 00:00:00 TRACK 06 AUDIO TITLE "Heart Of Wax" PERFORMER "Sandra" FLAGS DCP INDEX 00 03:41:50FILE "06 - Heart Of Wax.wav" WAVE INDEX 01 00:00:00 TRACK 07 AUDIO TITLE "Kings & Queens" PERFORMER "Sandra" FLAGS DCP INDEX 00 04:15:54FILE "07 - Kings & Queens.wav" WAVE INDEX 01 00:00:00 TRACK 08 AUDIO TITLE "Angels In My Head" PERFORMER "Sandra" FLAGS DCP INDEX 00 03:16:44FILE "08 - Angels In My Head.wav" WAVE INDEX 01 00:00:00 TRACK 09 AUDIO TITLE "Sand Heart" PERFORMER "Sandra" FLAGS DCP INDEX 00 02:55:13FILE "09 - Sand Heart.wav" WAVE INDEX 01 00:00:00 TRACK 10 AUDIO TITLE "Love Starts With A Smile" PERFORMER "Sandra" FLAGS DCP INDEX 00 03:48:33FILE "10 - Love Starts With A Smile.wav" WAVE INDEX 01 00:00:00 TRACK 11 AUDIO TITLE "Sun In Disguise" PERFORMER "Sandra" FLAGS DCP INDEX 00 03:26:21FILE "11 - Sun In Disguise.wav" WAVE INDEX 01 00:00:00

Содержание индексной карты (.CUE) CD 2

REM GENRE PopREM DATE 2012REM DISCID 880EF30BREM COMMENT "ExactAudioCopy v1.0b3"PERFORMER "Sandra"TITLE "Stay in Touch - Deluxe CD 2"FILE "01 - Moscow Nights (Extended Version).wav" WAVE TRACK 01 AUDIO TITLE "Moscow Nights (Extended Version) " PERFORMER "Sandra" FLAGS DCP INDEX 01 00:00:00 TRACK 02 AUDIO TITLE "Kings & Queens (Extended Version)" PERFORMER "Sandra" FLAGS DCP INDEX 00 05:13:19FILE "02 - Kings & Queens (Extended Version).wav" WAVE INDEX 01 00:00:00 TRACK 03 AUDIO TITLE "Love Starts With A Smile (Extended Version)" PERFORMER "Sandra" FLAGS DCP INDEX 00 06:24:73FILE "03 - Love Starts With A Smile (Extended Version).wav" WAVE INDEX 01 00:00:00 TRACK 04 AUDIO TITLE "Angels In My Head (Extended Version)" PERFORMER "Sandra" FLAGS DCP INDEX 00 05:40:25FILE "04 - Angels In My Head (Extended Version).wav" WAVE INDEX 01 00:00:00 TRACK 05 AUDIO TITLE "Stay In Touch (Extended Version)" PERFORMER "Sandra" FLAGS DCP INDEX 00 05:32:43FILE "05 - Stay In Touch (Extended Version).wav" WAVE INDEX 01 00:00:00 TRACK 06 AUDIO TITLE "Between Me & The Moon (Extended Version)" PERFORMER "Sandra" FLAGS DCP INDEX 00 05:36:43FILE "06 - Between Me & The Moon (Extended Version).wav" WAVE INDEX 01 00:00:00 TRACK 07 AUDIO TITLE "Sun In Disguise (Extended Version)" PERFORMER "Sandra" FLAGS DCP INDEX 00 05:24:59FILE "07 - Sun In Disguise (Extended Version).wav" WAVE INDEX 01 00:00:00 TRACK 08 AUDIO TITLE "Maybe Tonight (Extended Version)" PERFORMER "Sandra" FLAGS DCP INDEX 00 05:56:08FILE "08 - Maybe Tonight (Extended Version).wav" WAVE INDEX 01 00:00:00 TRACK 09 AUDIO TITLE "Infinite Kiss (Extended Version)" PERFORMER "Sandra" FLAGS DCP INDEX 00 04:55:72FILE "09 - Infinite Kiss (Extended Version).wav" WAVE INDEX 01 00:00:00 TRACK 10 AUDIO TITLE "Sand Heart (Extended Version)" PERFORMER "Sandra" FLAGS DCP INDEX 00 05:15:34FILE "10 - Sand Heart (Extended Version).wav" WAVE INDEX 01 00:00:00 TRACK 11 AUDIO TITLE "Heart Of Wax (Extended Version)" PERFORMER "Sandra" FLAGS DCP INDEX 00 06:17:30FILE "11 - Heart Of Wax (Extended Version).wav" WAVE INDEX 01 00:00:00
-

Лог проверки качества

AUDIOCHECKER v2.0 beta (build 457) - by Dester - opdester@freemail.hu~~~~~~~~~~~~~~~~~~~~~~~~~~~~~~~~~~
Started at: Monday, 29. 10. 2012. - 19:12.3522 files found
01 -===- C:\Music\Sandra - Stay In Touch (2 CD, 2012) [flac]\CD 1\01 - Stay In Touch.flac Extracted successfully Conclusion: this track is CDDA with probability 100% Tempfile successfully deleted.
02 -===- C:\Music\Sandra - Stay In Touch (2 CD, 2012) [flac]\CD 1\02 - Infinite Kiss.flac Extracted successfully Conclusion: this track is CDDA with probability 100% Tempfile successfully deleted.
03 -===- C:\Music\Sandra - Stay In Touch (2 CD, 2012) [flac]\CD 1\03 - Between Me & The Moon.flac Extracted successfully Conclusion: this track is CDDA with probability 100% Tempfile successfully deleted.
04 -===- C:\Music\Sandra - Stay In Touch (2 CD, 2012) [flac]\CD 1\04 - Maybe Tonight.flac Extracted successfully Conclusion: this track is CDDA with probability 100% Tempfile successfully deleted.
05 -===- C:\Music\Sandra - Stay In Touch (2 CD, 2012) [flac]\CD 1\05 - Moscow Nights.flac Extracted successfully Conclusion: this track is CDDA with probability 100% Tempfile successfully deleted.
06 -===- C:\Music\Sandra - Stay In Touch (2 CD, 2012) [flac]\CD 1\06 - Heart Of Wax.flac Extracted successfully Conclusion: this track is CDDA with probability 100% Tempfile successfully deleted.
07 -===- C:\Music\Sandra - Stay In Touch (2 CD, 2012) [flac]\CD 1\07 - Kings & Queens.flac Extracted successfully Conclusion: this track is CDDA with probability 100% Tempfile successfully deleted.
08 -===- C:\Music\Sandra - Stay In Touch (2 CD, 2012) [flac]\CD 1\08 - Angels In My Head.flac Extracted successfully Conclusion: this track is CDDA with probability 100% Tempfile successfully deleted.
09 -===- C:\Music\Sandra - Stay In Touch (2 CD, 2012) [flac]\CD 1\09 - Sand Heart.flac Extracted successfully Conclusion: this track is CDDA with probability 100% Tempfile successfully deleted.
10 -===- C:\Music\Sandra - Stay In Touch (2 CD, 2012) [flac]\CD 1\10 - Love Starts With A Smile.flac Extracted successfully Conclusion: this track is CDDA with probability 99% Tempfile successfully deleted.
11 -===- C:\Music\Sandra - Stay In Touch (2 CD, 2012) [flac]\CD 1\11 - Sun In Disguise.flac Extracted successfully Conclusion: this track is CDDA with probability 100% Tempfile successfully deleted.
12 -===- C:\Music\Sandra - Stay In Touch (2 CD, 2012) [flac]\CD 2\01 - Moscow Nights (Extended Version).flac Extracted successfully Conclusion: this track is CDDA with probability 100% Tempfile successfully deleted.
13 -===- C:\Music\Sandra - Stay In Touch (2 CD, 2012) [flac]\CD 2\02 - Kings & Queens (Extended Version).flac Extracted successfully Conclusion: this track is CDDA with probability 100% Tempfile successfully deleted.
14 -===- C:\Music\Sandra - Stay In Touch (2 CD, 2012) [flac]\CD 2\03 - Love Starts With A Smile (Extended Version).flac Extracted successfully Conclusion: this track is CDDA with probability 100% Tempfile successfully deleted.
15 -===- C:\Music\Sandra - Stay In Touch (2 CD, 2012) [flac]\CD 2\04 - Angels In My Head (Extended Version).flac Extracted successfully Conclusion: this track is CDDA with probability 100% Tempfile successfully deleted.
16 -===- C:\Music\Sandra - Stay In Touch (2 CD, 2012) [flac]\CD 2\05 - Stay In Touch (Extended Version).flac Extracted successfully Conclusion: this track is CDDA with probability 99% Tempfile successfully deleted.
17 -===- C:\Music\Sandra - Stay In Touch (2 CD, 2012) [flac]\CD 2\06 - Between Me & The Moon (Extended Version).flac Extracted successfully Conclusion: this track is CDDA with probability 100% Tempfile successfully deleted.
18 -===- C:\Music\Sandra - Stay In Touch (2 CD, 2012) [flac]\CD 2\07 - Sun In Disguise (Extended Version).flac Extracted successfully Conclusion: this track is CDDA with probability 100% Tempfile successfully deleted.
19 -===- C:\Music\Sandra - Stay In Touch (2 CD, 2012) [flac]\CD 2\08 - Maybe Tonight (Extended Version).flac Extracted successfully Conclusion: this track is CDDA with probability 100% Tempfile successfully deleted.
20 -===- C:\Music\Sandra - Stay In Touch (2 CD, 2012) [flac]\CD 2\09 - Infinite Kiss (Extended Version).flac Extracted successfully Conclusion: this track is CDDA with probability 99% Tempfile successfully deleted.
21 -===- C:\Music\Sandra - Stay In Touch (2 CD, 2012) [flac]\CD 2\10 - Sand Heart (Extended Version).flac Extracted successfully Conclusion: this track is CDDA with probability 100% Tempfile successfully deleted.
22 -===- C:\Music\Sandra - Stay In Touch (2 CD, 2012) [flac]\CD 2\11 - Heart Of Wax (Extended Version).flac Extracted successfully Conclusion: this track is CDDA with probability 100% Tempfile successfully deleted.
Finished at: Monday, 29. 10. 2012. - 19:18.10 (operation time: 0:05.35)

[Цитировать]



Показать сообщения:    

Текущее время: 10-Дек 04:12

Часовой пояс: UTC + 3


Вы не можете начинать темы
Вы не можете отвечать на сообщения
Вы не можете редактировать свои сообщения
Вы не можете удалять свои сообщения
Вы не можете голосовать в опросах
Вы не можете прикреплять файлы к сообщениям
Вы не можете скачивать файлы

!ВНИМАНИЕ!
Сайт не предоставляет электронные версии произведений, а занимается лишь коллекционированием и каталогизацией ссылок, присылаемых и публикуемых на форуме нашими читателями. Если вы являетесь правообладателем какого-либо представленного материала и не желаете, чтобы ссылка на него находилась в нашем каталоге, свяжитесь с нами, и мы незамедлительно удалим ее. Файлы для обмена на трекере предоставлены пользователями сайта, и администрация не несет ответственности за их содержание. Просьба не заливать файлы, защищенные авторскими правами, а также файлы нелегального содержания!