[ Сегодня идет свободное скачивание без начисления Download ]


Статистика раздачи
Скачал: [ 1 ]
 
   
 
Top  
 
 
Миссия: невыполнима - Антология / Mission: Impossible - Antology «Миссия невыполнима» - серия фильмов-боевиков, состоящая из пяти частей, выпущенных с 1996 по 2015 год и основанная на одноимённом телесериале. В центре сюжета — история агента Итана Ханта, которого на протяжении всех фильмов играет Том Круз.

Миссия: невыполнима


Название: Миссия: невыполнима
Оригинальное название: Mission: Impossible
Год выпуска: 1996
Страна: США
Жанр: боевик, триллер, приключения
Продолжительность: 01:50:12
Перевод: Профессиональный (многоголосый)
Субтитры: русские (Полные), английские (Полные)
Режиссер: Брайан Де Пальма
В ролях: Том Круз (Ethan Hunt), Джон Войт (Jim Phelps), Эммануэль Беар (Claire Phelps), Генри Черни (Eugene Kittridge), Жан Рено (Franz Krieger), Винг Реймз (Luther Stickell), Кристин Скотт Томас (Sarah Davies), Ванесса Редгрейв (Max), Ингеборга Дапкунайте (Hannah Williams), Эмилио Эстевес (Jack Harmon, в титрах не указан), Валентина Якунина (Drunken Female IMF Agent), Марек Васут (Drunken Male IMF Agent)
Описание:
Агент ЦРУ Итан Хант оказался в положении подозреваемого в предательстве «крота», из-за которого погибли несколько членов его команды, включая руководителя группы Джима Фелпса. В живых осталась еще только коллега Ханта - жена Фелпса агент Клэр. Чтобы снять с себя обвинения в предательстве, Ханту надо найти настоящего «крота».
Рейтинг:

MPAA: PG-13 - Детям до 13 лет просмотр не желателен
Качество: BDRip-AVC 60fps
Формат: MKV
Видео: AVC, 1024x424 (2.40:1), 3900 kbps, 59,940 fps, 0,150 bpp
Аудио: русский / AC3 / 5.1 / 48 kHz / 448 kbps / 16 bit |Позитив-мультимедиа|
Навигация по главам: есть

ОтчетМедиаИнфо

General
Unique ID : 211950545064816709548645175831828274111 (0x9F7430AD787F2EBEB0A1333D84FA9BBF)
Format : Matroska
Format version : Version 4 / Version 2
File size : 3.35 GiB
Duration : 1h 50mn
Overall bit rate : 4 351 Kbps
Movie name : Tiberiumsun69
Encoded date : UTC 2016-01-23 10:59:12
Writing application : mkvmerge v8.3.0 ('Over the Horizon') 64bit
Writing library : libebml v1.3.1 + libmatroska v1.4.2
Attachment : Yes
Video
ID : 1
Format : AVC
Format/Info : Advanced Video Codec
Format profile : High@L4.1
Format settings, CABAC : Yes
Format settings, ReFrames : 4 frames
Codec ID : V_MPEG4/ISO/AVC
Duration : 1h 50mn
Bit rate : 3 900 Kbps
Width : 1 024 pixels
Height : 424 pixels
Display aspect ratio : 2.40:1
Frame rate : 59.940 fps
Color space : YUV
Chroma subsampling : 4:2:0
Bit depth : 8 bits
Scan type : Progressive
Bits/(Pixel*Frame) : 0.150
Stream size : 2.94 GiB (88%)
Title : Tiberiumsun69
Writing library : x264 core 146 r2538 121396c
Encoding settings : cabac=1 / ref=3 / deblock=1:0:0 / analyse=0x3:0x113 / me=umh / subme=9 / psy=1 / psy_rd=1.00:0.10 / mixed_ref=1 / me_range=32 / chroma_me=1 / trellis=2 / 8x8dct=1 / cqm=0 / deadzone=21,11 / fast_pskip=0 / chroma_qp_offset=-3 / threads=12 / lookahead_threads=3 / sliced_threads=0 / nr=0 / decimate=1 / interlaced=0 / bluray_compat=0 / constrained_intra=0 / bframes=16 / b_pyramid=2 / b_adapt=2 / b_bias=0 / direct=3 / weightb=1 / open_gop=0 / weightp=2 / keyint=250 / keyint_min=25 / scenecut=40 / intra_refresh=0 / rc_lookahead=40 / rc=2pass / mbtree=1 / bitrate=3900 / ratetol=1.0 / qcomp=0.60 / qpmin=0 / qpmax=69 / qpstep=4 / cplxblur=20.0 / qblur=0.5 / vbv_maxrate=14000 / vbv_bufsize=14000 / nal_hrd=none / filler=0 / ip_ratio=1.40 / aq=1:1.00
Language : English
Default : Yes
Forced : No
Audio
ID : 2
Format : AC-3
Format/Info : Audio Coding 3
Mode extension : CM (complete main)
Codec ID : A_AC3
Duration : 1h 50mn
Bit rate mode : Constant
Bit rate : 448 Kbps
Channel(s) : 6 channels
Channel positions : Front: L C R, Side: L R, LFE
Sampling rate : 48.0 KHz
Bit depth : 16 bits
Compression mode : Lossy
Stream size : 353 MiB (10%)
Title : MVO Позитив-Мультимедия
Language : Russian
Default : Yes
Forced : No
Text #1
ID : 3
Format : UTF-8
Codec ID : S_TEXT/UTF8
Codec ID/Info : UTF-8 Plain Text
Title : Полные
Language : Russian
Default : No
Forced : No
Text #2
ID : 4
Format : UTF-8
Codec ID : S_TEXT/UTF8
Codec ID/Info : UTF-8 Plain Text
Title : Полные
Language : English
Default : No
Forced : No
Menu
00:00:00.000 : en:Kiev
00:03:00.972 : en:Good Morning, Mr. Phelps
00:10:44.727 : en:Golitsyn
00:26:43.811 : en:Mole Hunt
00:32:21.481 : en:Job 3:14
00:39:50.388 : en:Max
00:49:39.143 : en:Disavowed
00:55:45.634 : en:The Black Vault
01:12:25.716 : en:NOC List
01:18:34.460 : en:No More Secrets
01:28:14.539 : en:Masquerade
01:38:06.714 : en:Red Light Green Light
01:44:02.778 : en:"Aruba, Perhaps?"

Миссия: невыполнима 2


Название: Миссия: невыполнима 2
Оригинальное название: Mission: Impossible II
Год выпуска: 2000
Страна: США, Германия
Жанр: боевик, триллер, приключения
Продолжительность: 02:03:35
Перевод: Профессиональный (многоголосый)
Субтитры: русские (Полные), английские (Полные)
Режиссер: Джон Ву
В ролях: Том Круз (Ethan Hunt), Дюгрей Скотт (Sean Ambrose), Тэнди Ньютон (Nyah Nordoff-Hall), Ричард Роксбург (Hugh Stamp), Винг Реймз (Luther Stickell), Джон Полсон (Billy Baird), Брендан Глисон (John C. McCloy), Раде Шербеджия (Dr. Nekhorvich), Уильям Мапотер (Wallis), Энтони Хопкинс (Mission Commander Swanbeck, в титрах не указан,), Доминик Пёрселл (Ulrich), Мэттью Уилкинсон (Michael)
Описание:
Если мир внезапно оказывается перед лицом ужасной катастрофы, есть лишь один человек, который может исправить это ужасное положение. Его имя Итан Хант, он прирожденный специалист по разрешению самых неразрешимых ситуаций.
Теперь у Итана - новый, строгий начальник, новая очаровательная возлюбленная, новый коварный противник и новое задание, которое простому смертному просто не по плечу. Но Итан Хант не был бы Итаном Хантом, если бы не смог с блеском выполнить очередную невыполнимую миссию: справиться с кровожадными террористами и спасти планету от ужасного, смертельного вируса!
Рейтинг:

MPAA: PG-13 - Детям до 13 лет просмотр не желателен
Качество: BDRip-AVC 60fps
Формат: MKV
Видео: AVC, 1024x424 (2.40:1), 3900 kbps, 59,940 fps, 0,150 bpp
Аудио: русский / AC3 / 5.1 / 48 kHz / 448 kbps / 16 bit |Позитив-мультимедиа|
Навигация по главам: есть

ОтчетМедиаИнфо

General
Unique ID : 246800711757958795175512291141811847261 (0xB9AC168E2F67936A861DC3F05782405D)
Format : Matroska
Format version : Version 4 / Version 2
File size : 3.76 GiB
Duration : 2h 3mn
Overall bit rate : 4 352 Kbps
Movie name : Tiberiumsun69
Encoded date : UTC 2016-01-23 11:01:50
Writing application : mkvmerge v8.3.0 ('Over the Horizon') 64bit
Writing library : libebml v1.3.1 + libmatroska v1.4.2
Attachment : Yes
Video
ID : 1
Format : AVC
Format/Info : Advanced Video Codec
Format profile : High@L4.1
Format settings, CABAC : Yes
Format settings, ReFrames : 4 frames
Codec ID : V_MPEG4/ISO/AVC
Duration : 2h 3mn
Bit rate : 3 900 Kbps
Width : 1 024 pixels
Height : 424 pixels
Display aspect ratio : 2.40:1
Frame rate : 59.940 fps
Color space : YUV
Chroma subsampling : 4:2:0
Bit depth : 8 bits
Scan type : Progressive
Bits/(Pixel*Frame) : 0.150
Stream size : 3.30 GiB (88%)
Title : Tiberiumsun69
Writing library : x264 core 146 r2538 121396c
Encoding settings : cabac=1 / ref=3 / deblock=1:0:0 / analyse=0x3:0x113 / me=umh / subme=9 / psy=1 / psy_rd=1.00:0.10 / mixed_ref=1 / me_range=32 / chroma_me=1 / trellis=2 / 8x8dct=1 / cqm=0 / deadzone=21,11 / fast_pskip=0 / chroma_qp_offset=-3 / threads=12 / lookahead_threads=3 / sliced_threads=0 / nr=0 / decimate=1 / interlaced=0 / bluray_compat=0 / constrained_intra=0 / bframes=16 / b_pyramid=2 / b_adapt=2 / b_bias=0 / direct=3 / weightb=1 / open_gop=0 / weightp=2 / keyint=250 / keyint_min=25 / scenecut=40 / intra_refresh=0 / rc_lookahead=40 / rc=2pass / mbtree=1 / bitrate=3900 / ratetol=1.0 / qcomp=0.60 / qpmin=0 / qpmax=69 / qpstep=4 / cplxblur=20.0 / qblur=0.5 / vbv_maxrate=14000 / vbv_bufsize=14000 / nal_hrd=none / filler=0 / ip_ratio=1.40 / aq=1:1.00
Language : English
Default : Yes
Forced : No
Audio
ID : 2
Format : AC-3
Format/Info : Audio Coding 3
Mode extension : CM (complete main)
Codec ID : A_AC3
Duration : 2h 3mn
Bit rate mode : Constant
Bit rate : 448 Kbps
Channel(s) : 6 channels
Channel positions : Front: L C R, Side: L R, LFE
Sampling rate : 48.0 KHz
Bit depth : 16 bits
Compression mode : Lossy
Stream size : 396 MiB (10%)
Title : MVO Позитив-Мультимедия
Language : Russian
Default : Yes
Forced : No
Text #1
ID : 3
Format : UTF-8
Codec ID : S_TEXT/UTF8
Codec ID/Info : UTF-8 Plain Text
Title : Полные
Language : Russian
Default : No
Forced : No
Text #2
ID : 4
Format : UTF-8
Codec ID : S_TEXT/UTF8
Codec ID/Info : UTF-8 Plain Text
Title : Полные
Language : English
Default : No
Forced : No
Menu
00:00:00.000 : en:Old Friend
00:05:57.023 : en:Holiday
00:10:39.347 : en:I See You Found It
00:18:03.416 : en:Catch Me
00:23:47.343 : en:Sean Ambrose
00:34:47.877 : en:A Proper Welcome
00:45:40.071 : en:Don't Turn Around
00:56:08.407 : en:A Touch of the Flu
01:05:07.695 : en:Biocyte
01:11:38.961 : en:The Last Strain
01:18:24.742 : en:I Guess I Lied
01:25:59.905 : en:Supply and Demand
01:35:40.109 : en:Smile
01:40:16.802 : en:Race Against Time
01:49:33.692 : en:Mano a Mano
01:53:59.166 : en:Destroyed By Fire
01:58:58.590 : en:End Credits

Миссия: невыполнима 3


Название: Миссия: невыполнима 3
Оригинальное название: Mission: Impossible III
Год выпуска: 2006
Страна: США, Германия, Китай
Жанр: боевик, триллер, приключения
Продолжительность: 02:05:24
Перевод: Дубляж
Субтитры: русские (Полные), английские (Полные)
Режиссер: Джей Джей Абрамс
В ролях: Том Круз (Ethan Hunt), Филип Сеймур Хоффман (Owen Davian), Мишель Монахэн (Julia), Билли Крудап (John Musgrave), Винг Реймз (Luther Stickell), Джонатан Риз Майерс (Declan Gormley), Мэгги Кью (Zhen Lei), Кери Рассел (Lindsey Farris), Лоренс Фишбёрн (Theodore Brassel), Саймон Пегг (Benji Dunn), Эдди Марсан (Brownway), Бахар Сумех (Davian's Translator)
Описание:
Суперагент Итан Хант решил расстаться с оперативной работой и заняться подготовкой курсантов. Он даже решил жениться на привлекательной, ни о чём не ведающей Джулии. Руководство ЦРУ просит его принять участие в последней операции: спасении его бывшей ученицы Линдси Феррис из лап торговца оружием Оуэна Дэвиана. Мог ли Итан предположить, что за этим заданием последует целая череда смертельно опасных миссий в Ватикане, Нью-Йорке и Шанхае?
Рейтинг:

MPAA: PG-13 - Детям до 13 лет просмотр не желателен
Качество: BDRip-AVC 60fps
Формат: MKV
Видео: AVC, 1024x432 (2.35:1), 3850 kbps, 59,940 fps, 0,145 bpp
Аудио: русский / AC3 / 5.1 / 48 kHz / 640 kbps / 16 bit
Навигация по главам: есть

ОтчетМедиаИнфо

General
Unique ID : 192437057464628628898676716550766714904 (0x90C607759805B230966B2C43175BE018)
Format : Matroska
Format version : Version 4 / Version 2
File size : 3.94 GiB
Duration : 2h 5mn
Overall bit rate : 4 494 Kbps
Movie name : Tiberiumsun69
Encoded date : UTC 2016-01-23 11:07:08
Writing application : mkvmerge v8.3.0 ('Over the Horizon') 64bit
Writing library : libebml v1.3.1 + libmatroska v1.4.2
Attachment : Yes
Video
ID : 1
Format : AVC
Format/Info : Advanced Video Codec
Format profile : High@L4.1
Format settings, CABAC : Yes
Format settings, ReFrames : 4 frames
Codec ID : V_MPEG4/ISO/AVC
Duration : 2h 5mn
Bit rate : 3 850 Kbps
Width : 1 024 pixels
Height : 432 pixels
Display aspect ratio : 2.35:1
Frame rate : 59.940 fps
Color space : YUV
Chroma subsampling : 4:2:0
Bit depth : 8 bits
Scan type : Progressive
Bits/(Pixel*Frame) : 0.145
Stream size : 3.30 GiB (84%)
Title : Tiberiumsun69
Writing library : x264 core 146 r2538 121396c
Encoding settings : cabac=1 / ref=3 / deblock=1:0:0 / analyse=0x3:0x113 / me=umh / subme=9 / psy=1 / psy_rd=1.00:0.10 / mixed_ref=1 / me_range=32 / chroma_me=1 / trellis=2 / 8x8dct=1 / cqm=0 / deadzone=21,11 / fast_pskip=0 / chroma_qp_offset=-3 / threads=12 / lookahead_threads=3 / sliced_threads=0 / nr=0 / decimate=1 / interlaced=0 / bluray_compat=0 / constrained_intra=0 / bframes=16 / b_pyramid=2 / b_adapt=2 / b_bias=0 / direct=3 / weightb=1 / open_gop=0 / weightp=2 / keyint=250 / keyint_min=25 / scenecut=40 / intra_refresh=0 / rc_lookahead=40 / rc=2pass / mbtree=1 / bitrate=3850 / ratetol=1.0 / qcomp=0.60 / qpmin=0 / qpmax=69 / qpstep=4 / cplxblur=20.0 / qblur=0.5 / vbv_maxrate=14000 / vbv_bufsize=14000 / nal_hrd=none / filler=0 / ip_ratio=1.40 / aq=1:1.00
Language : English
Default : Yes
Forced : No
Audio
ID : 2
Format : AC-3
Format/Info : Audio Coding 3
Mode extension : CM (complete main)
Codec ID : A_AC3
Duration : 2h 5mn
Bit rate mode : Constant
Bit rate : 640 Kbps
Channel(s) : 6 channels
Channel positions : Front: L C R, Side: L R, LFE
Sampling rate : 48.0 KHz
Bit depth : 16 bits
Compression mode : Lossy
Stream size : 574 MiB (14%)
Title : Дубляж
Language : Russian
Default : Yes
Forced : No
Text #1
ID : 3
Format : UTF-8
Codec ID : S_TEXT/UTF8
Codec ID/Info : UTF-8 Plain Text
Title : Полные
Language : Russian
Default : No
Forced : No
Text #2
ID : 4
Format : UTF-8
Codec ID : S_TEXT/UTF8
Codec ID/Info : UTF-8 Plain Text
Title : Полные
Language : English
Default : No
Forced : No
Menu
00:00:00.000 : :1. Count to Ten
00:04:02.533 : :2. Engagement Party
00:12:58.401 : :3. Agent Lindsey Farris
00:21:18.095 : :4. Chopper Chase
00:26:32.499 : :5. Intelligence
00:32:56.540 : :6. Trust and Understanding
00:39:30.515 : :7. The Vatican
00:46:56.606 : :8. Finding Davian
00:51:44.606 : :9. Indentity Theft
00:57:35.240 : :10. Dangerous Cargo
01:02:09.014 : :11. Bridge Attack
01:09:06.654 : :12. The Tables Turn
01:18:19.400 : :13. Shanghai
01:23:31.502 : :14. Skyscraper
01:27:35.367 : :15. Night Flight
01:34:08.019 : :16. It's Complicated
01:42:43.706 : :17. Mobile Navigator
01:51:11.098 : :18. Point and Shoot
01:57:27.954 : :19. Mission: Honeymoon

Миссия невыполнима: Протокол Фантом


Название: Миссия невыполнима: Протокол Фантом
Оригинальное название: Mission: Impossible - Ghost Protocol
Год выпуска: 2011
Страна: США, ОАЭ, Чехия
Жанр: боевик, триллер, приключения
Продолжительность: 02:12:56
Перевод: Дубляж
Субтитры: русские (Форсированные), русские (Полные), английские (Полные)
Режиссер: Брэд Бёрд
В ролях: Том Круз (Ethan Hunt), Пола Пэттон (Jane), Саймон Пегг (Benji), Джереми Реннер (Brandt), Микаэл Нюквист (Hendricks), Владимир Машков (Sidorov), Самули Эдельманн (Wistrom), Анил Капур (Brij Nath), Леа Сейду (Sabine Moreau), Джош Холлоуэй (Hanaway), Иван Шведов (Leonid Lisenker), Павел Криз (Marek Stefanski)
Описание:
Специальный агент отряда «Миссия невыполнима» Итан Хант и его коллеги несправедливо обвинены в причастности к взрыву Кремля. Президент инициирует «Протокол Фантом», в результате которого спецподразделение ликвидировано, и Итан остается без какой-либо поддержки. Он намерен очистить свое доброе имя и предотвратить новую атаку, но делать это ему придется вместе с командой коллег, истинных мотивов которых он до конца не знает.
Рейтинг:

MPAA: PG-13 - Детям до 13 лет просмотр не желателен
Качество: BDRip-AVC 60fps
Формат: MKV
Видео: AVC, 1024x424 (2.40:1), 3610 kbps, 59,940 fps, 0,139 bpp
Аудио: русский / AC3 / 5.1 / 48 kHz / 640 kbps / 16 bit
Навигация по главам: есть

ОтчетМедиаИнфо

General
Unique ID : 210844676020468183842651903744617220942 (0x9E9F351FC8DB89ABB1EDB02C9CF00B4E)
Format : Matroska
Format version : Version 4 / Version 2
File size : 3.95 GiB
Duration : 2h 12mn
Overall bit rate : 4 254 Kbps
Movie name : Tiberiumsun69
Encoded date : UTC 2016-01-23 11:10:25
Writing application : mkvmerge v8.3.0 ('Over the Horizon') 64bit
Writing library : libebml v1.3.1 + libmatroska v1.4.2
Attachment : Yes
Video
ID : 1
Format : AVC
Format/Info : Advanced Video Codec
Format profile : High@L4.1
Format settings, CABAC : Yes
Format settings, ReFrames : 4 frames
Codec ID : V_MPEG4/ISO/AVC
Duration : 2h 12mn
Bit rate : 3 610 Kbps
Width : 1 024 pixels
Height : 424 pixels
Display aspect ratio : 2.40:1
Frame rate : 59.940 fps
Color space : YUV
Chroma subsampling : 4:2:0
Bit depth : 8 bits
Scan type : Progressive
Bits/(Pixel*Frame) : 0.139
Stream size : 3.28 GiB (83%)
Title : Tiberiumsun69
Writing library : x264 core 146 r2538 121396c
Encoding settings : cabac=1 / ref=3 / deblock=1:0:0 / analyse=0x3:0x113 / me=umh / subme=9 / psy=1 / psy_rd=1.00:0.10 / mixed_ref=1 / me_range=32 / chroma_me=1 / trellis=2 / 8x8dct=1 / cqm=0 / deadzone=21,11 / fast_pskip=0 / chroma_qp_offset=-3 / threads=12 / lookahead_threads=3 / sliced_threads=0 / nr=0 / decimate=1 / interlaced=0 / bluray_compat=0 / constrained_intra=0 / bframes=16 / b_pyramid=2 / b_adapt=2 / b_bias=0 / direct=3 / weightb=1 / open_gop=0 / weightp=2 / keyint=250 / keyint_min=25 / scenecut=40 / intra_refresh=0 / rc_lookahead=40 / rc=2pass / mbtree=1 / bitrate=3610 / ratetol=1.0 / qcomp=0.60 / qpmin=0 / qpmax=69 / qpstep=4 / cplxblur=20.0 / qblur=0.5 / vbv_maxrate=14000 / vbv_bufsize=14000 / nal_hrd=none / filler=0 / ip_ratio=1.40 / aq=1:1.00
Language : English
Default : Yes
Forced : No
Audio
ID : 2
Format : AC-3
Format/Info : Audio Coding 3
Mode extension : CM (complete main)
Codec ID : A_AC3
Duration : 2h 12mn
Bit rate mode : Constant
Bit rate : 640 Kbps
Channel(s) : 6 channels
Channel positions : Front: L C R, Side: L R, LFE
Sampling rate : 48.0 KHz
Bit depth : 16 bits
Compression mode : Lossy
Stream size : 609 MiB (15%)
Title : Дубляж
Language : Russian
Default : Yes
Forced : No
Text #1
ID : 3
Format : UTF-8
Codec ID : S_TEXT/UTF8
Codec ID/Info : UTF-8 Plain Text
Title : Форсированные
Language : Russian
Default : Yes
Forced : No
Text #2
ID : 4
Format : UTF-8
Codec ID : S_TEXT/UTF8
Codec ID/Info : UTF-8 Plain Text
Title : Полные
Language : Russian
Default : No
Forced : No
Text #3
ID : 5
Format : UTF-8
Codec ID : S_TEXT/UTF8
Codec ID/Info : UTF-8 Plain Text
Title : Полные
Language : English
Default : No
Forced : No
Menu
00:00:00.000 : en:00:00:00.000
00:04:41.907 : en:00:04:41.907
00:11:28.897 : en:00:11:28.897
00:20:01.951 : en:00:20:01.951
00:27:35.320 : en:00:27:35.320
00:33:28.173 : en:00:33:28.173
00:38:18.087 : en:00:38:18.087
00:44:46.100 : en:00:44:46.100
00:51:37.219 : en:00:51:37.219
00:56:05.153 : en:00:56:05.153
01:02:50.183 : en:01:02:50.183
01:09:17.820 : en:01:09:17.820
01:16:32.379 : en:01:16:32.379
01:22:18.517 : en:01:22:18.517
01:31:17.055 : en:01:31:17.055
01:35:57.377 : en:01:35:57.377
01:42:49.914 : en:01:42:49.914
01:51:01.780 : en:01:51:01.780
01:58:26.391 : en:01:58:26.391
02:05:58.843 : en:02:05:58.843

Миссия невыполнима: Племя изгоев


Название: Миссия невыполнима: Племя изгоев
Оригинальное название: Mission: Impossible - Rogue Nation
Год выпуска: 2015
Страна: США
Жанр: боевик, триллер, приключения
Продолжительность: 02:11:33
Перевод: Дубляж
Субтитры: русские (Форсированные), русские (Полные), английские (Полные)
Режиссер: Кристофер МакКуорри
В ролях: Том Круз (Ethan Hunt), Ребекка Фергюсон (Ilsa Faust), Саймон Пегг (Benji Dunn), Джереми Реннер (William Brandt), Винг Реймз (Luther Stickell), Шон Харрис (Solomon Lane), Алек Болдуин (Alan Hunley), Саймон МакБерни (Atlee), Йенс Хультен (Janik Vinter), Том Холландер (Prime Minister), Чжан Цзинчу (Lauren), Матео Руфино (A400M Pilot #1)
Описание:
Когда ОМН распускают, и Итан Хант остается не у дел, его команда неожиданно сталкивается с разветвленной международной сетью высокопрофессиональных спецагентов - Синдикатом. Это «племя изгоев» одержимо идеей установления нового мирового порядка и планирует серию разрушительных терактов. Итан и компания объединяются с дискредитированным британским агентом Ильзой Фауст и приступают к своей самой невыполнимой миссии...
Рейтинг:

MPAA: PG-13 - Детям до 13 лет просмотр не желателен
Качество: BDRip-AVC 60fps
Формат: MKV
Видео: AVC, 1024x432 (2.35:1), 3650 kbps, 59,940 fps, 0,138 bpp
Аудио: русский / AC3 / 5.1 / 48 kHz / 640 kbps / 16 bit
Навигация по главам: есть

ОтчетМедиаИнфо

General
Unique ID : 233674790407031681758268290703716315652 (0xAFCC20AB0150D256ACD7BCA8EC44F204)
Format : Matroska
Format version : Version 4 / Version 2
File size : 3.94 GiB
Duration : 2h 11mn
Overall bit rate : 4 291 Kbps
Movie name : Tiberiumsun69
Encoded date : UTC 2016-01-23 11:17:54
Writing application : mkvmerge v8.3.0 ('Over the Horizon') 64bit
Writing library : libebml v1.3.1 + libmatroska v1.4.2
Attachment : Yes
Video
ID : 1
Format : AVC
Format/Info : Advanced Video Codec
Format profile : High@L4.1
Format settings, CABAC : Yes
Format settings, ReFrames : 4 frames
Codec ID : V_MPEG4/ISO/AVC
Duration : 2h 11mn
Bit rate : 3 650 Kbps
Width : 1 024 pixels
Height : 432 pixels
Display aspect ratio : 2.35:1
Frame rate : 59.940 fps
Color space : YUV
Chroma subsampling : 4:2:0
Bit depth : 8 bits
Scan type : Progressive
Bits/(Pixel*Frame) : 0.138
Stream size : 3.28 GiB (83%)
Title : Tiberiumsun69
Writing library : x264 core 146 r2538 121396c
Encoding settings : cabac=1 / ref=3 / deblock=1:0:0 / analyse=0x3:0x113 / me=umh / subme=9 / psy=1 / psy_rd=1.00:0.10 / mixed_ref=1 / me_range=32 / chroma_me=1 / trellis=2 / 8x8dct=1 / cqm=0 / deadzone=21,11 / fast_pskip=0 / chroma_qp_offset=-3 / threads=12 / lookahead_threads=3 / sliced_threads=0 / nr=0 / decimate=1 / interlaced=0 / bluray_compat=0 / constrained_intra=0 / bframes=16 / b_pyramid=2 / b_adapt=2 / b_bias=0 / direct=3 / weightb=1 / open_gop=0 / weightp=2 / keyint=250 / keyint_min=25 / scenecut=40 / intra_refresh=0 / rc_lookahead=40 / rc=2pass / mbtree=1 / bitrate=3650 / ratetol=1.0 / qcomp=0.60 / qpmin=0 / qpmax=69 / qpstep=4 / cplxblur=20.0 / qblur=0.5 / vbv_maxrate=14000 / vbv_bufsize=14000 / nal_hrd=none / filler=0 / ip_ratio=1.40 / aq=1:1.00
Language : English
Default : Yes
Forced : No
Audio
ID : 2
Format : AC-3
Format/Info : Audio Coding 3
Mode extension : CM (complete main)
Codec ID : A_AC3
Duration : 2h 11mn
Bit rate mode : Constant
Bit rate : 640 Kbps
Channel(s) : 6 channels
Channel positions : Front: L C R, Side: L R, LFE
Sampling rate : 48.0 KHz
Bit depth : 16 bits
Compression mode : Lossy
Stream size : 602 MiB (15%)
Title : Дубляж
Language : Russian
Default : Yes
Forced : No
Text #1
ID : 3
Format : UTF-8
Codec ID : S_TEXT/UTF8
Codec ID/Info : UTF-8 Plain Text
Title : Форсированные
Language : Russian
Default : Yes
Forced : No
Text #2
ID : 4
Format : UTF-8
Codec ID : S_TEXT/UTF8
Codec ID/Info : UTF-8 Plain Text
Title : Полные
Language : Russian
Default : No
Forced : No
Text #3
ID : 5
Format : UTF-8
Codec ID : S_TEXT/UTF8
Codec ID/Info : UTF-8 Plain Text
Title : Полные
Language : English
Default : No
Forced : No
Menu
00:00:00.000 : en:Chapter 1
00:09:53.092 : en:Chapter 2
00:20:45.702 : en:Chapter 3
00:25:32.072 : en:Chapter 4
00:32:00.668 : en:Chapter 5
00:40:03.442 : en:Chapter 6
00:49:35.555 : en:Chapter 7
01:01:01.157 : en:Chapter 8
01:09:51.687 : en:Chapter 9
01:20:20.857 : en:Chapter 10
01:29:29.322 : en:Chapter 11
01:38:32.823 : en:Chapter 12
01:48:19.409 : en:Chapter 13
01:57:13.943 : en:Chapter 14
02:03:02.708 : en:Chapter 15
Авторство группы

[Цитировать]



Показать сообщения:    

Текущее время: 11-Дек 09:10

Часовой пояс: UTC + 3


Вы не можете начинать темы
Вы не можете отвечать на сообщения
Вы не можете редактировать свои сообщения
Вы не можете удалять свои сообщения
Вы не можете голосовать в опросах
Вы не можете прикреплять файлы к сообщениям
Вы не можете скачивать файлы

!ВНИМАНИЕ!
Сайт не предоставляет электронные версии произведений, а занимается лишь коллекционированием и каталогизацией ссылок, присылаемых и публикуемых на форуме нашими читателями. Если вы являетесь правообладателем какого-либо представленного материала и не желаете, чтобы ссылка на него находилась в нашем каталоге, свяжитесь с нами, и мы незамедлительно удалим ее. Файлы для обмена на трекере предоставлены пользователями сайта, и администрация не несет ответственности за их содержание. Просьба не заливать файлы, защищенные авторскими правами, а также файлы нелегального содержания!