[ Сегодня идет свободное скачивание без начисления Download ]


Статистика раздачи
Нет
 
   
 
Top  
 
 
Michael Jackson - Albums & Singles (12 CD)
Жанр: Pop
Год выпуска диска: 1982-1997
Аудио кодек: APE
Тип рипа: image+.cue
Битрейт аудио: lossless

Thriller

Производитель диска: Austria
Трэклист:
01. Wanna Be Startin' Somethin' (6:04)
02. Baby Be Mine (4:21)
03. The Girl Is Mine (With Paul McCartny) (3:42)
04. Thriller (5:59)
05. Beat It (4:19)
06. Billie Jean (4:54)
07. Human Nature (4:06)
08. P.Y.T. (Pretty Young Thing) (3:59)
09. The Lady In My Life (5:00)
Продолжительность: 42:25

Отчёт EAC

Exact Audio Copy V0.99 prebeta 4 from 23. January 2008
EAC extraction logfile from 8. June 2008, 1:29
MICHAEL JACKSON / Thriller (Austria)
Used drive : PIONEER DVD-RW DVR-109 Adapter: 0 ID: 0
Read mode : Secure
Utilize accurate stream : Yes
Defeat audio cache : Yes
Make use of C2 pointers : No
Read offset correction : 48
Overread into Lead-In and Lead-Out : No
Fill up missing offset samples with silence : Yes
Delete leading and trailing silent blocks : No
Null samples used in CRC calculations : Yes
Used interface : Installed external ASPI interface
Used output format : Internal WAV Routines
Sample format : 44.100 Hz; 16 Bit; Stereo
TOC of the extracted CD
Track | Start | Length | Start sector | End sector
---------------------------------------------------------
1 | 0:00.00 | 6:04.20 | 0 | 27319
2 | 6:04.20 | 4:20.62 | 27320 | 46881
3 | 10:25.07 | 3:42.35 | 46882 | 63566
4 | 14:07.42 | 5:59.33 | 63567 | 90524
5 | 20:07.00 | 4:18.65 | 90525 | 109939
6 | 24:25.65 | 4:54.30 | 109940 | 132019
7 | 29:20.20 | 4:06.25 | 132020 | 150494
8 | 33:26.45 | 3:59.20 | 150495 | 168439
9 | 37:25.65 | 4:59.47 | 168440 | 190911
Range status and errors
Selected range
Filename G:\MICHAEL JACKSON\1982 _ Thriller (Austria)\MICHAEL JACKSON _ 1982 _ Thriller (Austria).wav
Peak level 100.0 %
Range quality 100.0 %
Test CRC B1C53D97
Copy CRC B1C53D97
Copy OK
No errors occurred
AccurateRip summary
Track 1 accurately ripped (confidence 10) [6EB67464]
Track 2 accurately ripped (confidence 12) [A6F3A42D]
Track 3 accurately ripped (confidence 12) [CF957BFE]
Track 4 accurately ripped (confidence 12) [4748D06D]
Track 5 accurately ripped (confidence 12) [4896AD2A]
Track 6 accurately ripped (confidence 12) [2AB5DAC8]
Track 7 accurately ripped (confidence 12) [ACFE7E8A]
Track 8 accurately ripped (confidence 12) [14CAA506]
Track 9 accurately ripped (confidence 10) [09FC337F]
All tracks accurately ripped
End of status report

Dangerous

Производитель диска: Canada
Трэклист:
01. Jam (5:39)
02. Why You Wanna Trip on Me (5:25)
03. In the Closet (6:32)
04. She Drives Me Wild (3:42)
05. Remember the Time (4:01)
06. Can't Let Her Get Away (5:01)
07. Heal the World (6:25)
08. Black or White (feat. Slash) (4:16)
09. Who Is It (6:35)
10. Give in to Me (feat. Slash) (5:29)
11. Will You Be There (7:41)
12. Keep the Faith (5:57)
13. Gone Too Soon (3:22)
14. Dangerous (7:00)
Продолжительность: 77:06

Tau


Отчёт EAC

Exact Audio Copy V0.99 prebeta 4 from 23. January 2008
EAC extraction logfile from 9. April 2008, 22:32
MICHAEL JACKSON / Dangerous (Canada)
Used drive : PIONEER DVD-RW DVR-110D Adapter: 0 ID: 0
Read mode : Secure
Utilize accurate stream : Yes
Defeat audio cache : Yes
Make use of C2 pointers : No
Read offset correction : 48
Overread into Lead-In and Lead-Out : No
Fill up missing offset samples with silence : Yes
Delete leading and trailing silent blocks : No
Null samples used in CRC calculations : Yes
Used interface : Installed external ASPI interface
Used output format : Internal WAV Routines
Sample format : 44.100 Hz; 16 Bit; Stereo
TOC of the extracted CD
Track | Start | Length | Start sector | End sector
---------------------------------------------------------
1 | 0:00.00 | 5:39.12 | 0 | 25436
2 | 5:39.12 | 5:24.53 | 25437 | 49789
3 | 11:03.65 | 6:32.22 | 49790 | 79211
4 | 17:36.12 | 3:41.73 | 79212 | 95859
5 | 21:18.10 | 4:00.45 | 95860 | 113904
6 | 25:18.55 | 5:01.32 | 113905 | 136511
7 | 30:20.12 | 6:25.05 | 136512 | 165391
8 | 36:45.17 | 4:16.18 | 165392 | 184609
9 | 41:01.35 | 6:35.35 | 184610 | 214269
10 | 47:36.70 | 5:28.45 | 214270 | 238914
11 | 53:05.40 | 7:40.72 | 238915 | 273486
12 | 60:46.37 | 5:57.23 | 273487 | 300284
13 | 66:43.60 | 3:22.02 | 300285 | 315436
14 | 70:05.62 | 7:00.13 | 315437 | 346949
Range status and errors
Selected range
Filename F:\MICHAEL JACKSON\1991 _ Dangerous (Canada)\MICHAEL JACKSON _ 1991 _ Dangerous (Canada).wav
Peak level 100.0 %
Range quality 99.9 %
Test CRC FECE3588
Copy CRC FECE3588
Copy OK
No errors occurred
AccurateRip summary
Track 1 not present in database
Track 2 not present in database
Track 3 not present in database
Track 4 not present in database
Track 5 not present in database
Track 6 not present in database
Track 7 not present in database
Track 8 not present in database
Track 9 not present in database
Track 10 not present in database
Track 11 not present in database
Track 12 not present in database
Track 13 not present in database
Track 14 not present in database
None of the tracks are present in the AccurateRip database
End of status report

Bad & Dangerous But Innocent Remixes (Bootleg)

Производитель диска: Неизвестно
Трэклист:
01. Jam (Space Vibes Mix) (6:11)
02. Black Or White (Hard Groove Mix) (5:17)
03. Dirty Diana (Unlimited Mix) (5:19)
04. Bad (Streetwear Mix) (6:16)
05. Smooth Criminal (Gangsta Mix) (5:35)
06. Leave Me Alone (No Kids Left Mix) (6:52)
07. Speed Demon (Bretter Mix) (6:25)
08. Who Is It (Extended Stranger Mix) (8:20)
09. Remember The Time (Melancholy Overdose Mix) (8:37)
10. In The Closet (Klaustrophobia Mix) (7:55)
11. Will You Be There (Prayer Mix) (6:27)
Продолжительность: 73:14

Tau


Отчёт EAC

Exact Audio Copy V0.99 prebeta 4 from 23. January 2008
EAC extraction logfile from 14. June 2008, 2:56
MICHAEL JACKSON / Bad & Dangerous But Innocent Remixes
Used drive : PIONEER DVD-RW DVR-109 Adapter: 0 ID: 0
Read mode : Secure
Utilize accurate stream : Yes
Defeat audio cache : Yes
Make use of C2 pointers : No
Read offset correction : 48
Overread into Lead-In and Lead-Out : No
Fill up missing offset samples with silence : Yes
Delete leading and trailing silent blocks : No
Null samples used in CRC calculations : Yes
Used interface : Installed external ASPI interface
Used output format : Internal WAV Routines
Sample format : 44.100 Hz; 16 Bit; Stereo
TOC of the extracted CD
Track | Start | Length | Start sector | End sector
---------------------------------------------------------
1 | 0:00.32 | 6:10.65 | 32 | 27846
2 | 6:11.22 | 5:17.30 | 27847 | 51651
3 | 11:28.52 | 5:19.30 | 51652 | 75606
4 | 16:48.07 | 6:15.55 | 75607 | 103786
5 | 23:03.62 | 5:35.20 | 103787 | 128931
6 | 28:39.07 | 6:51.70 | 128932 | 159826
7 | 35:31.02 | 6:24.43 | 159827 | 188669
8 | 41:55.45 | 8:19.52 | 188670 | 226146
9 | 50:15.22 | 8:37.15 | 226147 | 264936
10 | 58:52.37 | 7:55.05 | 264937 | 300566
11 | 66:47.42 | 6:26.70 | 300567 | 329586
Range status and errors
Selected range
Filename I:\MICHAEL JACKSON\Bad & Dangerous But Innocent Remixes\MICHAEL JACKSON - Bad & Dangerous But Innocent Remixes.wav
Peak level 96.0 %
Range quality 99.9 %
Test CRC 11ACB8FD
Copy CRC 11ACB8FD
Copy OK
No errors occurred
AccurateRip summary
Track 1 not present in database
Track 2 not present in database
Track 3 not present in database
Track 4 not present in database
Track 5 not present in database
Track 6 not present in database
Track 7 not present in database
Track 8 not present in database
Track 9 not present in database
Track 10 not present in database
Track 11 not present in database
None of the tracks are present in the AccurateRip database
End of status report

1992 - Remember The Time (UK CDS)

Производитель диска: UK
Трэклист:
01. Remember The Time (Album Version) (4:03)
02. Remember The Time (Silky Soul) (4:24)
03. Remember The Time (New Jack Main Mix) (6:50)
04. Come Together (5:28)
Продолжительность: 20:44

Отчёт EAC

Exact Audio Copy V0.99 prebeta 4 from 23. January 2008
EAC extraction logfile from 21. July 2008, 23:07
MICHAEL JACKSON / Remember The Time (CDS - UK)
Used drive : PIONEER DVD-RW DVR-110D Adapter: 0 ID: 0
Read mode : Secure
Utilize accurate stream : Yes
Defeat audio cache : Yes
Make use of C2 pointers : No
Read offset correction : 48
Overread into Lead-In and Lead-Out : No
Fill up missing offset samples with silence : Yes
Delete leading and trailing silent blocks : No
Null samples used in CRC calculations : Yes
Used interface : Installed external ASPI interface
Used output format : Internal WAV Routines
Sample format : 44.100 Hz; 16 Bit; Stereo
TOC of the extracted CD
Track | Start | Length | Start sector | End sector
---------------------------------------------------------
1 | 0:00.00 | 4:03.22 | 0 | 18246
2 | 4:03.22 | 4:23.43 | 18247 | 38014
3 | 8:26.65 | 6:50.17 | 38015 | 68781
4 | 15:17.07 | 5:27.63 | 68782 | 93369
Range status and errors
Selected range
Filename H:\MICHAEL JACKSON\Singles\1992 _ Remember The Time (CDS - UK)\MJ _ 1992 _ Remember The Time (CDS - UK).wav
Peak level 100.0 %
Range quality 99.9 %
Test CRC 8A42C9E6
Copy CRC 8A42C9E6
Copy OK
No errors occurred
AccurateRip summary
Track 1 accurately ripped (confidence 4) [DCA8673D]
Track 2 accurately ripped (confidence 3) [8458FFA1]
Track 3 accurately ripped (confidence 3) [6016632D]
Track 4 accurately ripped (confidence 3) [E8F149C4]
All tracks accurately ripped
End of status report
[spoiler"1995 - Earth Song (UK CDS1)"]Производитель диска: Austria
Трэклист:
01. Earth Song (Radio Edit) (5:02)
02. Earth Song (Hani's Club Experience) (7:57)
03. Michael Jackson DMC Megamix (11:17)
Продолжительность: 24:16

Отчёт EAC

Exact Audio Copy V0.99 prebeta 4 from 23. January 2008
EAC extraction logfile from 12. June 2008, 21:37
MICHAEL JACKSON / Earth Song (UK CDS1 - Austria)
Used drive : PIONEER DVD-RW DVR-109 Adapter: 0 ID: 0
Read mode : Secure
Utilize accurate stream : Yes
Defeat audio cache : Yes
Make use of C2 pointers : No
Read offset correction : 48
Overread into Lead-In and Lead-Out : No
Fill up missing offset samples with silence : Yes
Delete leading and trailing silent blocks : No
Null samples used in CRC calculations : Yes
Used interface : Installed external ASPI interface
Used output format : Internal WAV Routines
Sample format : 44.100 Hz; 16 Bit; Stereo
TOC of the extracted CD
Track | Start | Length | Start sector | End sector
---------------------------------------------------------
1 | 0:00.00 | 5:02.12 | 0 | 22661
2 | 5:02.12 | 7:56.63 | 22662 | 58424
3 | 12:59.00 | 11:17.35 | 58425 | 109234
Range status and errors
Selected range
Filename G:\MICHAEL JACKSON\1995 _ Earth Song (UK CDS1 - Austria)\M. JACKSON _ 1995 _ Earth Song (UK CDS1 - Austria).wav
Peak level 100.0 %
Range quality 99.9 %
Test CRC 1B183D94
Copy CRC 1B183D94
Copy OK
No errors occurred
AccurateRip summary
Track 1 accurately ripped (confidence 3) [61FEB3E0]
Track 2 accurately ripped (confidence 3) [585BCCB0]
Track 3 accurately ripped (confidence 3) [0B80DE75]
All tracks accurately ripped
End of status report

1995 - Earth Song (UK CDS2)

Производитель диска: Austria
Трэклист:
01. Earth Song (Radio Edit) (5:03)
02. Earth Song (Hani's Radio Experience) (3:35)
03. Wanna Be Startin' Somethin' (Brothers In Rhythn Mix) (7:36)
04. Wanna Be Startin' Somethin' (Tommy D's Main Mix) (7:40)
Продолжительность: 23:54

Отчёт EAC

Exact Audio Copy V0.99 prebeta 4 from 23. January 2008
EAC extraction logfile from 10. June 2008, 12:18
MICHAEL JACKSON / Earth Song (UK CDS2 - Austria)
Used drive : PIONEER DVD-RW DVR-109 Adapter: 0 ID: 0
Read mode : Secure
Utilize accurate stream : Yes
Defeat audio cache : Yes
Make use of C2 pointers : No
Read offset correction : 48
Overread into Lead-In and Lead-Out : No
Fill up missing offset samples with silence : Yes
Delete leading and trailing silent blocks : No
Null samples used in CRC calculations : Yes
Used interface : Installed external ASPI interface
Used output format : Internal WAV Routines
Sample format : 44.100 Hz; 16 Bit; Stereo
TOC of the extracted CD
Track | Start | Length | Start sector | End sector
---------------------------------------------------------
1 | 0:00.00 | 5:03.27 | 0 | 22751
2 | 5:03.27 | 3:34.43 | 22752 | 38844
3 | 8:37.70 | 7:35.72 | 38845 | 73041
4 | 16:13.67 | 7:40.20 | 73042 | 107561
Range status and errors
Selected range
Filename G:\MICHAEL JACKSON\1995 _ Earth Song (UK CDS2 - Austria)\M. JACKSON _ 1995 _ Earth Song (UK CDS2 - Austria).wav
Peak level 99.9 %
Range quality 100.0 %
Test CRC 401862B4
Copy CRC 401862B4
Copy OK
No errors occurred
AccurateRip summary
Track 1 not present in database
Track 2 not present in database
Track 3 not present in database
Track 4 not present in database
None of the tracks are present in the AccurateRip database
End of status report

1995 - You Are Not Alone (UK CDS)

Производитель диска: Austria
Трэклист:
01. You Are Not Alone (Radio Edit) (4:37)
02. You Are Not Alone (Frankie Knuckles - Franctified Club Mix) (10:11)
03. You Are Not Alone (Frankie Knuckles - Classic Song Version) (7:40)
04. You Are Not Alone (Jon B. Main Remix) (6:57)
05. You Are Not Alone (Jon B. Padappella) (6:54)
Продолжительность: 36:19

Отчёт EAC

Exact Audio Copy V0.99 prebeta 4 from 23. January 2008
EAC extraction logfile from 13. September 2008, 19:42
MICHAEL JACKSON / You Are Not Alone (CDS - Austria)
Used drive : PIONEER DVD-RW DVR-110D Adapter: 0 ID: 0
Read mode : Secure
Utilize accurate stream : Yes
Defeat audio cache : Yes
Make use of C2 pointers : No
Read offset correction : 48
Overread into Lead-In and Lead-Out : No
Fill up missing offset samples with silence : Yes
Delete leading and trailing silent blocks : No
Null samples used in CRC calculations : Yes
Used interface : Installed external ASPI interface
Used output format : Internal WAV Routines
Sample format : 44.100 Hz; 16 Bit; Stereo
TOC of the extracted CD
Track | Start | Length | Start sector | End sector
---------------------------------------------------------
1 | 0:00.00 | 4:36.65 | 0 | 20764
2 | 4:36.65 | 10:11.05 | 20765 | 66594
3 | 14:47.70 | 7:40.00 | 66595 | 101094
4 | 22:27.70 | 6:57.00 | 101095 | 132369
5 | 29:24.70 | 6:54.35 | 132370 | 163454
Range status and errors
Selected range
Filename J:\MICHAEL JACKSON\Singles\1995 _ You Are Not Alone (CDS - Austria)\MJ _ 1995 _ You Are Not Alone (CDS - Austria).wav
Peak level 100.0 %
Range quality 100.0 %
Test CRC 502C276B
Copy CRC 502C276B
Copy OK
No errors occurred
AccurateRip summary
Track 1 accurately ripped (confidence 2) [69C1377A]
Track 2 accurately ripped (confidence 2) [51B4FA85]
Track 3 accurately ripped (confidence 2) [31167E3B]
Track 4 accurately ripped (confidence 2) [17F2307C]
Track 5 accurately ripped (confidence 2) [B972E56A]
All tracks accurately ripped
End of status report

1996 - Stranger In Moscow (CDS1 of 3)

Производитель диска: Austria
Трэклист:
01. Stranger In Moscow (Album Version) (5:46)
02. Stranger In Moscow (Basement Boys 12' Dance Club Mix) (8:19)
03. Stranger In Moscow (Hani's Num Club Mix) (10:19)
04. Stranger In Moscow (Basement Boys Danger Dub) (5:37)
05. Stranger In Moscow (Hani's Num Radio) (3:53)
06. Stranger In Moscow (Basement Boys Radio Mix) (4:05)
Продолжительность: 37:57

Отчёт EAC

Exact Audio Copy V0.99 prebeta 4 from 23. January 2008
EAC extraction logfile from 12. June 2008, 22:30
MICHAEL JACKSON / Stranger In Moscow (CDS1 of 3 - Austria)
Used drive : PIONEER DVD-RW DVR-109 Adapter: 0 ID: 0
Read mode : Secure
Utilize accurate stream : Yes
Defeat audio cache : Yes
Make use of C2 pointers : No
Read offset correction : 48
Overread into Lead-In and Lead-Out : No
Fill up missing offset samples with silence : Yes
Delete leading and trailing silent blocks : No
Null samples used in CRC calculations : Yes
Used interface : Installed external ASPI interface
Used output format : Internal WAV Routines
Sample format : 44.100 Hz; 16 Bit; Stereo
TOC of the extracted CD
Track | Start | Length | Start sector | End sector
---------------------------------------------------------
1 | 0:00.00 | 5:45.52 | 0 | 25926
2 | 5:45.52 | 8:18.60 | 25927 | 63336
3 | 14:04.37 | 10:19.00 | 63337 | 109761
4 | 24:23.37 | 5:36.38 | 109762 | 134999
5 | 30:00.00 | 3:52.62 | 135000 | 152461
6 | 33:52.62 | 4:04.38 | 152462 | 170799
Range status and errors
Selected range
Filename G:\MICHAEL JACKSON\1996 _ Stranger In Moscow (CDS1 of 3 - Austria)\M. JACKSON _ 1996 _ Stranger In Moscow (CDS1 of 3 -
Austria).wav
Peak level 100.0 %
Range quality 100.0 %
Test CRC F26437F3
Copy CRC F26437F3
Copy OK
No errors occurred
AccurateRip summary
Track 1 accurately ripped (confidence 4) [731B465F]
Track 2 accurately ripped (confidence 4) [04946309]
Track 3 accurately ripped (confidence 4) [D45BD5BB]
Track 4 accurately ripped (confidence 4) [2FD00858]
Track 5 accurately ripped (confidence 4) [B26B3DFC]
Track 6 accurately ripped (confidence 4) [C6094A24]
All tracks accurately ripped
End of status report

1996 - They Don't Care About Us (UK CDS1)

Производитель диска: Austria
Трэклист:
01. They Don't Care About Us (LP Edit) (4:11)
02. They Don't Care About Us (Love To Infinity's Walk In The Park Mix) (7:20)
03. They Don't Care About Us (Love To Infinity's Classic Paradise Mix) (7:57)
04. They Don't Care About Us (Love To Infinity's Athem Of Love Mix) (7:48)
05. They Don't Care About Us (Love To Infinity's Hacienda Mix) (7:13)
06. They Don't Care About Us (Dallas Austin Main Mix) (5:16)
Продолжительность: 39:45

Отчёт EAC

Exact Audio Copy V0.99 prebeta 4 from 23. January 2008
EAC extraction logfile from 6. July 2008, 22:36
MICHAEL JACKSON / They Don't Care About Us (UK CDS1 - Austria)
Used drive : PIONEER DVD-RW DVR-110D Adapter: 0 ID: 0
Read mode : Secure
Utilize accurate stream : Yes
Defeat audio cache : Yes
Make use of C2 pointers : No
Read offset correction : 48
Overread into Lead-In and Lead-Out : No
Fill up missing offset samples with silence : Yes
Delete leading and trailing silent blocks : No
Null samples used in CRC calculations : Yes
Used interface : Installed external ASPI interface
Used output format : Internal WAV Routines
Sample format : 44.100 Hz; 16 Bit; Stereo
TOC of the extracted CD
Track | Start | Length | Start sector | End sector
---------------------------------------------------------
1 | 0:00.00 | 4:11.22 | 0 | 18846
2 | 4:11.22 | 7:19.50 | 18847 | 51821
3 | 11:30.72 | 7:56.45 | 51822 | 87566
4 | 19:27.42 | 7:48.23 | 87567 | 122689
5 | 27:15.65 | 7:13.20 | 122690 | 155184
6 | 34:29.10 | 5:16.10 | 155185 | 178894
Range status and errors
Selected range
Filename H:\MICHAEL JACKSON\1996 _ They Don't Care About Us (UK CDS1 - Austria)\MJ _ 1996 _ They Don't Care About Us (UK CDS1 -
Austria).wav
Peak level 100.0 %
Range quality 100.0 %
Test CRC 97BED527
Copy CRC 97BED527
Copy OK
No errors occurred
AccurateRip summary
Track 1 cannot be verified as accurate (confidence 3) [53EE4716], AccurateRip returned [9B2BCBEE]
Track 2 cannot be verified as accurate (confidence 3) [084D5EDE], AccurateRip returned [337EDFCA]
Track 3 cannot be verified as accurate (confidence 4) [81EE9CA0], AccurateRip returned [968E364C]
Track 4 cannot be verified as accurate (confidence 3) [889DD9E0], AccurateRip returned [E17CD438]
Track 5 cannot be verified as accurate (confidence 3) [91731430], AccurateRip returned [A42942F5]
Track 6 cannot be verified as accurate (confidence 3) [05D23392], AccurateRip returned [EB8ED545]
No tracks could be verified as accurate
You may have a different pressing from the one(s) in the database
End of status report

1997 - Blood On The Dance Floor (UK Ltd. Edition Minimax 5'' CDS)

Производитель диска: UK
Трэклист:
01. Blood On The Dance Floor (4:14)
02. Blood On The Dance Floor (TM's Switchblade Edit) (3:23)
03. Blood On The Dance Floor (Fire Island Radio Edit) (3:52)
04. Dangerous (Roger's Dangerous Club Mix) (6:57)
Продолжительность: 18:26

Отчёт EAC

Exact Audio Copy V0.99 prebeta 4 from 23. January 2008
EAC extraction logfile from 6. July 2008, 23:14
MICHAEL JACKSON / Blood On The Dance Floor (UK Ltd. Edition Minimax 5'' CDS - UK)
Used drive : PIONEER DVD-RW DVR-110D Adapter: 0 ID: 0
Read mode : Secure
Utilize accurate stream : Yes
Defeat audio cache : Yes
Make use of C2 pointers : No
Read offset correction : 48
Overread into Lead-In and Lead-Out : No
Fill up missing offset samples with silence : Yes
Delete leading and trailing silent blocks : No
Null samples used in CRC calculations : Yes
Used interface : Installed external ASPI interface
Used output format : Internal WAV Routines
Sample format : 44.100 Hz; 16 Bit; Stereo
TOC of the extracted CD
Track | Start | Length | Start sector | End sector
---------------------------------------------------------
1 | 0:00.00 | 4:14.22 | 0 | 19071
2 | 4:14.22 | 3:22.63 | 19072 | 34284
3 | 7:37.10 | 3:52.12 | 34285 | 51696
4 | 11:29.22 | 6:57.23 | 51697 | 82994
Range status and errors
Selected range
Filename H:\MICHAEL JACKSON\1997 _ Blood On The Dance Floor (UK Ltd. Edition Minimax 5'' CDS - UK)\MJ _ 1997 _ Blood On The
Dance Floor (UK Ltd. Edition Minimax 5'' CDS - UK).wav
Peak level 100.0 %
Range quality 100.0 %
Test CRC 670C2AED
Copy CRC 670C2AED
Copy OK
No errors occurred
AccurateRip summary
Track 1 accurately ripped (confidence 2) [605F9DEA]
Track 2 accurately ripped (confidence 2) [FC128BBC]
Track 3 accurately ripped (confidence 2) [BE0308E4]
Track 4 accurately ripped (confidence 2) [DE388786]
All tracks accurately ripped
End of status report

1997 - History (UK CDS2)

Производитель диска: UK
Трэклист:
01. History (Tony Moran's History Lesson) (8:02)
02. History (Tony Moran's History Dub) (7:57)
03. History (Mark!'s Vocal Dub Mix) (9:13)
04. History (The Ummah Radio Mix) (5:00)
05. History (The Ummah Urban Mix) (4:19)
Продолжительность: 34:31

Отчёт EAC

Exact Audio Copy V0.99 prebeta 4 from 23. January 2008
EAC extraction logfile from 13. September 2008, 19:20
MICHAEL JACKSON / History (UK CDS2 - UK)
Used drive : PIONEER DVD-RW DVR-110D Adapter: 0 ID: 0
Read mode : Secure
Utilize accurate stream : Yes
Defeat audio cache : Yes
Make use of C2 pointers : No
Read offset correction : 48
Overread into Lead-In and Lead-Out : No
Fill up missing offset samples with silence : Yes
Delete leading and trailing silent blocks : No
Null samples used in CRC calculations : Yes
Used interface : Installed external ASPI interface
Used output format : Internal WAV Routines
Sample format : 44.100 Hz; 16 Bit; Stereo
TOC of the extracted CD
Track | Start | Length | Start sector | End sector
---------------------------------------------------------
1 | 0:00.00 | 8:02.27 | 0 | 36176
2 | 8:02.27 | 7:57.00 | 36177 | 71951
3 | 15:59.27 | 9:13.00 | 71952 | 113426
4 | 25:12.27 | 5:00.25 | 113427 | 135951
5 | 30:12.52 | 4:18.45 | 135952 | 155346
Range status and errors
Selected range
Filename J:\MICHAEL JACKSON\Singles\1997 _ History (UK CDS2 - UK)\MJ _ 1997 _ History (UK CDS2 - UK).wav
Peak level 98.8 %
Range quality 100.0 %
Test CRC 9B802D1E
Copy CRC 9B802D1E
Copy OK
No errors occurred
AccurateRip summary
Track 1 not present in database
Track 2 not present in database
Track 3 not present in database
Track 4 not present in database
Track 5 not present in database
None of the tracks are present in the AccurateRip database
End of status report

1997 - Stranger In Moscow (US CDS2)

Производитель диска: USA
Трэклист:
01. Stranger In Moscow (Tee's Radio Mix) (4:23)
02. Stranger In Moscow (Charles Roane's Full R&B Mix) (4:39)
03. Stranger In Moscow (Hani's Num Radio Mix) (3:53)
04. Stranger In Moscow (Tee's In-House Club Mix) (6:55)
05. Stranger In Moscow (Basement Boys 12 Club Mix) (8:18)
06. Stranger In Moscow (Hani's Extended Chill Hop Mix) (6:02)
07. Off The Wall (Junior Vasquez Remix) (5:13)
Продолжительность: 39:24

Отчёт EAC

Exact Audio Copy V0.99 prebeta 4 from 23. January 2008
EAC extraction logfile from 13. June 2008, 21:55
MICHAEL JACKSON / Stranger In Moscow (US CDS2 - USA)
Used drive : PIONEER DVD-RW DVR-109 Adapter: 0 ID: 0
Read mode : Secure
Utilize accurate stream : Yes
Defeat audio cache : Yes
Make use of C2 pointers : No
Read offset correction : 48
Overread into Lead-In and Lead-Out : No
Fill up missing offset samples with silence : Yes
Delete leading and trailing silent blocks : No
Null samples used in CRC calculations : Yes
Used interface : Installed external ASPI interface
Used output format : Internal WAV Routines
Sample format : 44.100 Hz; 16 Bit; Stereo
TOC of the extracted CD
Track | Start | Length | Start sector | End sector
---------------------------------------------------------
1 | 0:00.00 | 4:23.05 | 0 | 19729
2 | 4:23.05 | 4:39.15 | 19730 | 40669
3 | 9:02.20 | 3:53.10 | 40670 | 58154
4 | 12:55.30 | 6:55.05 | 58155 | 89284
5 | 19:50.35 | 8:18.32 | 89285 | 126666
6 | 28:08.67 | 6:02.25 | 126667 | 153841
7 | 34:11.17 | 5:13.20 | 153842 | 177336
Range status and errors
Selected range
Filename I:\MICHAEL JACKSON\1997 _ Stranger In Moscow (US CDS2 - USA)\MJ _ 1997 _ Stranger In Moscow (US CDS2 - USA).wav
Peak level 100.0 %
Range quality 100.0 %
Test CRC 5C4B0595
Copy CRC 5C4B0595
Copy OK
No errors occurred
AccurateRip summary
Track 1 not present in database
Track 2 not present in database
Track 3 not present in database
Track 4 not present in database
Track 5 not present in database
Track 6 not present in database
Track 7 not present in database
None of the tracks are present in the AccurateRip database
End of status report
Доп. информация: Рипы (EAC) с оригинальных CD.
Все мои раздачи

[Цитировать]



Показать сообщения:    

Текущее время: 11-Дек 14:53

Часовой пояс: UTC + 3


Вы не можете начинать темы
Вы не можете отвечать на сообщения
Вы не можете редактировать свои сообщения
Вы не можете удалять свои сообщения
Вы не можете голосовать в опросах
Вы не можете прикреплять файлы к сообщениям
Вы не можете скачивать файлы

!ВНИМАНИЕ!
Сайт не предоставляет электронные версии произведений, а занимается лишь коллекционированием и каталогизацией ссылок, присылаемых и публикуемых на форуме нашими читателями. Если вы являетесь правообладателем какого-либо представленного материала и не желаете, чтобы ссылка на него находилась в нашем каталоге, свяжитесь с нами, и мы незамедлительно удалим ее. Файлы для обмена на трекере предоставлены пользователями сайта, и администрация не несет ответственности за их содержание. Просьба не заливать файлы, защищенные авторскими правами, а также файлы нелегального содержания!