[ Today is free to download without increasing Download ]

DL-List and Torrent activity
Влюбленные / Belle du Seigneur? «По лезвию страсти» ? ? Год выпуска: 2012
? Страна: Франция, Люксембург, Германия, Бельгия, Швейцария, Великобритания
? Производство: Anchor Bay Films, Boss Media, Temple Hill Entertainment
? Жанр: драма, мелодрама
? Режиссер: Гленио Бондер
? В ролях: Джонатан Риз Майерс, Наталья Водянова, Эд Стоппард, Марианна Фэйтфулл, Мария Бонневи, Джанин Хорсбур, Лесли Вудхолл, Джимми Де Брэбэнт, Стефан Вейнерт, Гилберт Джонстон
? Перевод: Профессиональный (полное дублирование)
? Субтитры: Отсутствуют
? Описание: В 1930-е высокопоставленный чиновник Лиги Наций Солаль приезжает в Женеву. Там он знакомится с замужней аристократкой Арианой, и через некоторое время у них начинается страстный роман.

? Качество: WEBRip
? Продолжительность: 01:37:10
? Формат: AVI
? Видео кодек: XviD
? Аудио кодек: MP3
? Видео: 720x304 (16:9), 25.000 fps, XviD ~1831 kbps avg, 0.335 bit/pixel
? Аудио: 48 kHz, MP3,2 ch, ~128.00 kbps avg - |DUB|
Премьера (РФ): 29 ноября 2012, «All Media», «Арена»

Media Info

      Complete name : D:\фильмы\Vljublennye.avi
      Format : AVI
      Format/Info : Audio Video Interleave
      File size : 1.34 GiB
      Duration : 1h 37mn
      Overall bit rate : 1 969 Kbps
      Writing library : VirtualDub build 29808/release
   Video #0
      ID : 0
      Format : MPEG-4 Visual
      Format profile : Advanced Simple@L5
      Format settings, BVOP : 2
      Format settings, QPel : No
      Format settings, GMC : No warppoints
      Format settings, Matrix : Default (MPEG)
      Muxing mode : Packed bitstream
      Codec ID : XVID
      Codec ID/Hint : XviD
      Duration : 1h 37mn
      Bit rate : 1 831 Kbps
      Width : 720 pixels
      Height : 304 pixels
      Display aspect ratio : 16:9
      Frame rate : 25.000 fps
      Color space : YUV
      Chroma subsampling : 4:2:0
      Bit depth : 8 bits
      Scan type : Progressive
      Compression mode : Lossy
      Bits/(Pixel*Frame) : 0.335
      Stream size : 1.24 GiB (93%)
      Writing library : XviD 1.2.1 (UTC 2008-12-04)
   Audio #1
      ID : 1
      Format : MPEG Audio
      Format version : Version 1
      Format profile : Layer 3
      Mode : Joint stereo
      Mode extension : MS Stereo
      Codec ID : 55
      Codec ID/Hint : MP3
      Duration : 1h 37mn
      Bit rate mode : Constant
      Bit rate : 128 Kbps
      Channel(s) : 2 channels
      Sampling rate : 48.0 KHz
      Compression mode : Lossy
      Stream size : 89.0 MiB (7%)
      Alignment : Split accross interleaves
      Interleave, duration : 40 ms (1.00 video frame)
      Interleave, preload duration : 500 ms


Топик был перенесен из форума Новинки кинопроката в форум Драма

Display posts:    

Current time is: 24-Oct 02:54

All times are UTC + 3

You cannot post new topics in this forum
You cannot reply to topics in this forum
You cannot edit your posts in this forum
You cannot delete your posts in this forum
You cannot vote in polls in this forum
You cannot attach files in this forum
You cannot download files in this forum

The site does not give electronic versions of products, and is engaged only in a collecting and cataloguing of the references sent and published at a forum by our readers. If you are the legal owner of any submitted material and do not wish that the reference to it was in our catalogue, contact us and we shall immediately remove her. Files for an exchange on tracker are given by users of a site, and the administration does not bear the responsibility for their maintenance. The request to not fill in the files protected by copyrights, and also files of the illegal maintenance!