[ Сегодня идет свободное скачивание без начисления Download ]


Статистика раздачи
Нет
 
   
 
Top  
 
 
Влюбленные / Belle du Seigneur? «По лезвию страсти» ? ? Год выпуска: 2012
? Страна: Франция, Люксембург, Германия, Бельгия, Швейцария, Великобритания
? Производство: Anchor Bay Films, Boss Media, Temple Hill Entertainment
? Жанр: драма, мелодрама
? Режиссер: Гленио Бондер
? В ролях: Джонатан Риз Майерс, Наталья Водянова, Эд Стоппард, Марианна Фэйтфулл, Мария Бонневи, Джанин Хорсбур, Лесли Вудхолл, Джимми Де Брэбэнт, Стефан Вейнерт, Гилберт Джонстон
? Перевод: Профессиональный (полное дублирование)
? Субтитры: Отсутствуют
? Описание: В 1930-е высокопоставленный чиновник Лиги Наций Солаль приезжает в Женеву. Там он знакомится с замужней аристократкой Арианой, и через некоторое время у них начинается страстный роман.

? Качество: WEBRip
? Продолжительность: 01:37:10
? Формат: AVI
? Видео кодек: XviD
? Аудио кодек: MP3
? Видео: 720x304 (16:9), 25.000 fps, XviD ~1831 kbps avg, 0.335 bit/pixel
? Аудио: 48 kHz, MP3,2 ch, ~128.00 kbps avg - |DUB|
Премьера (РФ): 29 ноября 2012, «All Media», «Арена»

Media Info

D:\фильмы\Vljublennye.avi
   General
      Complete name : D:\фильмы\Vljublennye.avi
      Format : AVI
      Format/Info : Audio Video Interleave
      File size : 1.34 GiB
      Duration : 1h 37mn
      Overall bit rate : 1 969 Kbps
      Writing library : VirtualDub build 29808/release
   Video #0
      ID : 0
      Format : MPEG-4 Visual
      Format profile : Advanced [email protected]
      Format settings, BVOP : 2
      Format settings, QPel : No
      Format settings, GMC : No warppoints
      Format settings, Matrix : Default (MPEG)
      Muxing mode : Packed bitstream
      Codec ID : XVID
      Codec ID/Hint : XviD
      Duration : 1h 37mn
      Bit rate : 1 831 Kbps
      Width : 720 pixels
      Height : 304 pixels
      Display aspect ratio : 16:9
      Frame rate : 25.000 fps
      Color space : YUV
      Chroma subsampling : 4:2:0
      Bit depth : 8 bits
      Scan type : Progressive
      Compression mode : Lossy
      Bits/(Pixel*Frame) : 0.335
      Stream size : 1.24 GiB (93%)
      Writing library : XviD 1.2.1 (UTC 2008-12-04)
   Audio #1
      ID : 1
      Format : MPEG Audio
      Format version : Version 1
      Format profile : Layer 3
      Mode : Joint stereo
      Mode extension : MS Stereo
      Codec ID : 55
      Codec ID/Hint : MP3
      Duration : 1h 37mn
      Bit rate mode : Constant
      Bit rate : 128 Kbps
      Channel(s) : 2 channels
      Sampling rate : 48.0 KHz
      Compression mode : Lossy
      Stream size : 89.0 MiB (7%)
      Alignment : Split accross interleaves
      Interleave, duration : 40 ms (1.00 video frame)
      Interleave, preload duration : 500 ms
[th]http://torrentsclub.org/pictures/45ea0f2ac8e9ea8389...583044b.jpg[/th]
[th]http://torrentsclub.org/pictures/7b25a41f58682ac6d9...b7aa0e9.jpg[/th]
[th]http://torrentsclub.org/pictures/7cf404c7e8ed4ad963...0813b77.jpg[/th]

[Цитировать]

Топик был перенесен из форума Новинки кинопроката в форум Драма
Henkok



Показать сообщения:    

Текущее время: 04-Дек 23:24

Часовой пояс: UTC + 3


Вы не можете начинать темы
Вы не можете отвечать на сообщения
Вы не можете редактировать свои сообщения
Вы не можете удалять свои сообщения
Вы не можете голосовать в опросах
Вы не можете прикреплять файлы к сообщениям
Вы не можете скачивать файлы

!ВНИМАНИЕ!
Сайт не предоставляет электронные версии произведений, а занимается лишь коллекционированием и каталогизацией ссылок, присылаемых и публикуемых на форуме нашими читателями. Если вы являетесь правообладателем какого-либо представленного материала и не желаете, чтобы ссылка на него находилась в нашем каталоге, свяжитесь с нами, и мы незамедлительно удалим ее. Файлы для обмена на трекере предоставлены пользователями сайта, и администрация не несет ответственности за их содержание. Просьба не заливать файлы, защищенные авторскими правами, а также файлы нелегального содержания!