[ Сегодня идет свободное скачивание без начисления Download ]


Статистика раздачи
Качаю: [ 1 ]
Скачал: [ 1 ]
 
   
 
Top  
 
 
Сверхъестественное / Supernatural [S05] Название: Сверхъестественное
Оригинальное название: Supernatural
Год выпуска: 2009
Страна: США
Жанр: ужасы, фэнтези, триллер, драма, детектив
Продолжительность: ~00:39:55
Перевод: Дубляж (Рен-ТВ), Дубляж + MVO (NovaFilm), MVO (NovaFilm), Оригинальный
Субтитры: русские (Полные), английские (Полные)
В ролях: Джаред Падалеки (Sam Winchester), Дженсен Эклс (Dean Winchester), Джим Бивер (Bobby Singer), Миша Коллинз (Castiel), Марк Шеппард (Crowley), Марк Пеллегрино (Lucifer), Женевьев Падалеки (Ruby), Кэти Кэссиди (Ruby), Джеймс Патрик Стюарт (Dick Roman), Саманта Феррис (Ellen Harvelle), Алона Тал (Jo Harvelle), Осрик Чау (Kevin Tran)
Описание:
Сериал рассказывает о приключениях братьев Сэма и Дина Винчестеров, которые путешествуют по Соединённым Штатам на чёрном автомобиле Chevrolet Impala 1967 года, расследуют паранормальные явления, многие из которых основаны на американских городских легендах и фольклоре, и сражаются с порождениями зла, такими как демоны и призраки.
Рейтинг:

Качество: BDRip-AVC 60fps
Формат: MKV
Видео: AVC, 1024x576 (16:9), 5300 kbps, 59,940 fps, 0,150 bpp
Аудио №1: русский / AC3 / 2.0 / 48 kHz / 192 kbps / 16 bit
Аудио №2: русский / AC3 / 2.0 / 48 kHz / 192 kbps / 16 bit
Аудио №3: русский / AC3 / 2.0 / 48 kHz / 192 kbps / 16 bit
Аудио №4: английский / AC3 / 5.1 / 48 kHz / 640 kbps / 16 bit

Внимание!

Начиная с 18 серии , в фильтре уплавления были изменены параметры дополнительной резкости в исходных кадрах (Sharpen 0.6).Подробную информацию про данную обработку вы можете найти на сайте группы в разделе обновленной инструкции по созданию видео в 60fps.

Список серий

1 серия - Сочувствие Дьяволу
2 серия - С Богом, братцы!
3 серия - Свободным быть тебе и мне
4 серия - Конец
5 серия - Падшие кумиры
6 серия - Я верю, дети — наше будущее
7 серия - Загадочная история Дина Винчестера
8 серия - Переключая каналы
9 серия - Настоящие охотники за привидениями
10 серия - Оставь всякую надежду
11 серия - Прерванная жизнь, Сэм
12 серия - Обмен телами
13 серия - Песня остается прежней
14 серия - Мой кровавый Валентин
15 серия - Мёртвые пледов не носят
16 серия - Обратная сторона Луны
17 серия - Девяносто девять проблем
18 серия - Назад дороги нет
19 серия - Молот Богов
20 серия - Знакомый вам Дьявол
21 серия - Две минуты до полуночи
22 серия - Лебединая песня

ОтчетМедиаИнфо

General
Unique ID : 171766341036709710360962845273355925898 (0x8138FE746D71CAFAAB97BD6A556B398A)
Format : Matroska
Format version : Version 4 / Version 2
File size : 1.94 GiB
Duration : 42mn 27s
Overall bit rate : 6 542 Kbps
Movie name : Tiberiumsun69
Encoded date : UTC 2015-12-19 06:42:57
Writing application : mkvmerge v8.3.0 ('Over the Horizon') 64bit
Writing library : libebml v1.3.1 + libmatroska v1.4.2
Attachment : Yes
Video
ID : 1
Format : AVC
Format/Info : Advanced Video Codec
Format profile : High@L4.1
Format settings, CABAC : Yes
Format settings, ReFrames : 4 frames
Codec ID : V_MPEG4/ISO/AVC
Duration : 42mn 27s
Bit rate : 5 300 Kbps
Width : 1 024 pixels
Height : 576 pixels
Display aspect ratio : 16:9
Frame rate : 59.940 fps
Color space : YUV
Chroma subsampling : 4:2:0
Bit depth : 8 bits
Scan type : Progressive
Bits/(Pixel*Frame) : 0.150
Stream size : 1.54 GiB (79%)
Title : Tiberiumsun69
Writing library : x264 core 146 r2538 121396c
Encoding settings : cabac=1 / ref=3 / deblock=1:0:0 / analyse=0x3:0x113 / me=umh / subme=9 / psy=1 / psy_rd=1.00:0.10 / mixed_ref=1 / me_range=32 / chroma_me=1 / trellis=2 / 8x8dct=1 / cqm=0 / deadzone=21,11 / fast_pskip=0 / chroma_qp_offset=-3 / threads=12 / lookahead_threads=3 / sliced_threads=0 / nr=0 / decimate=1 / interlaced=0 / bluray_compat=0 / constrained_intra=0 / bframes=16 / b_pyramid=2 / b_adapt=2 / b_bias=0 / direct=3 / weightb=1 / open_gop=0 / weightp=2 / keyint=250 / keyint_min=25 / scenecut=40 / intra_refresh=0 / rc_lookahead=40 / rc=2pass / mbtree=0 / bitrate=5300 / ratetol=1.0 / qcomp=0.60 / qpmin=0 / qpmax=69 / qpstep=4 / cplxblur=20.0 / qblur=0.5 / vbv_maxrate=14000 / vbv_bufsize=14000 / nal_hrd=none / filler=0 / ip_ratio=1.40 / pb_ratio=1.30 / aq=1:1.00
Language : English
Default : Yes
Forced : No
Audio #1
ID : 2
Format : AC-3
Format/Info : Audio Coding 3
Mode extension : CM (complete main)
Codec ID : A_AC3
Duration : 42mn 27s
Bit rate mode : Constant
Bit rate : 192 Kbps
Channel(s) : 2 channels
Channel positions : Front: L R
Sampling rate : 48.0 KHz
Bit depth : 16 bits
Compression mode : Lossy
Stream size : 58.3 MiB (3%)
Title : Дубляж
Language : Russian
Default : Yes
Forced : No
Audio #2
ID : 3
Format : AC-3
Format/Info : Audio Coding 3
Mode extension : CM (complete main)
Codec ID : A_AC3
Duration : 42mn 27s
Bit rate mode : Constant
Bit rate : 192 Kbps
Channel(s) : 2 channels
Channel positions : Front: L R
Sampling rate : 48.0 KHz
Bit depth : 16 bits
Compression mode : Lossy
Stream size : 58.3 MiB (3%)
Title : MVO NovaFilm & dub
Language : Russian
Default : No
Forced : No
Audio #3
ID : 4
Format : AC-3
Format/Info : Audio Coding 3
Mode extension : CM (complete main)
Codec ID : A_AC3
Duration : 42mn 27s
Bit rate mode : Constant
Bit rate : 192 Kbps
Channel(s) : 2 channels
Channel positions : Front: L R
Sampling rate : 48.0 KHz
Bit depth : 16 bits
Compression mode : Lossy
Stream size : 58.3 MiB (3%)
Title : MVO NovaFilm
Language : Russian
Default : No
Forced : No
Audio #4
ID : 5
Format : AC-3
Format/Info : Audio Coding 3
Mode extension : CM (complete main)
Codec ID : A_AC3
Duration : 42mn 27s
Bit rate mode : Constant
Bit rate : 640 Kbps
Channel(s) : 6 channels
Channel positions : Front: L C R, Side: L R, LFE
Sampling rate : 48.0 KHz
Bit depth : 16 bits
Compression mode : Lossy
Stream size : 194 MiB (10%)
Title : Оригинал
Language : English
Default : No
Forced : No
Text #1
ID : 6
Format : UTF-8
Codec ID : S_TEXT/UTF8
Codec ID/Info : UTF-8 Plain Text
Title : Полные
Language : Russian
Default : No
Forced : No
Text #2
ID : 7
Format : UTF-8
Codec ID : S_TEXT/UTF8
Codec ID/Info : UTF-8 Plain Text
Title : Полные
Language : English
Default : No
Forced : No

Скриншоты

Авторство группы

[Цитировать]



Показать сообщения:    

Текущее время: 21-Фев 15:26

Часовой пояс: UTC + 3


Вы не можете начинать темы
Вы не можете отвечать на сообщения
Вы не можете редактировать свои сообщения
Вы не можете удалять свои сообщения
Вы не можете голосовать в опросах
Вы не можете прикреплять файлы к сообщениям
Вы не можете скачивать файлы

!ВНИМАНИЕ!
Сайт не предоставляет электронные версии произведений, а занимается лишь коллекционированием и каталогизацией ссылок, присылаемых и публикуемых на форуме нашими читателями. Если вы являетесь правообладателем какого-либо представленного материала и не желаете, чтобы ссылка на него находилась в нашем каталоге, свяжитесь с нами, и мы незамедлительно удалим ее. Файлы для обмена на трекере предоставлены пользователями сайта, и администрация не несет ответственности за их содержание. Просьба не заливать файлы, защищенные авторскими правами, а также файлы нелегального содержания!