[ Сегодня идет свободное скачивание без начисления Download ]


Статистика раздачи
Нет
 
   
 
Top  
 
 
Драконы навсегда / Fei lung mang jeung (1988) BDRip 720p | 60fps- Название: Драконы навсегда
Оригинальное название: Fei lung mang jeung / Dragons Forever
Год выхода: 1988
Жанр: Боевик, мелодрама, комедия
Режиссер: Саммо Кам-Бо Хунг, Кори Юэнь
Продюсер: Пуй-Ва Чан, Рэймонд Чоу, Леонард Хо
В ролях: Джеки Чан, Саммо Хунг, Юэнь Бьяо, Динни Йип, Полин Юнг, Кристал Квок, Юэнь Ва, Бенни Уркидез, Билли Чоу, Вонг Ю, Вонг Юк-Ван...
Описание фильма:
Секретный завод по производству наркотиков разрушает экологию маленького озера. Владелица озера, красавица Лао, возбуждает судебный процесс против наркомафии.
Талантливый адвокат Джеки Лан, по приказу коррумпированных властей, должен отстаивать в суде интересы мафии. Адвокат с помощью друзей начинает тайное расследование деятельности мафии.
Страна: Гонконг
Студия: Golden Harvest Company Ltd., Golden Way Films Ltd.
Продолжительность: 01:33:41
Перевод: Профессиональный (многоголосый закадровый)
Субтитры:Отсутствуют

Дата мировой премьеры:11 февраля 1988г
Файл
Формат: MKV
Кодек: MPEG-4 AVC/H.264
Качество: BDRip 720p
Видео: ~ 9922 Кбит/сек, 1280 x 720, 60.000 кадров/сек
Аудио#1: AC3 2, 48.0 KHz, 192 Кбит/сек - ТНТ
Аудио#2: AC3 2, 48.0 KHz, 192 Кбит/сек - ТВ1000
Аудио#3: AC3 5.1, 48.0 KHz, 448 Кбит/сек - Визгунов
Аудио#4: AC3 2, 48.0 KHz, 192 Кбит/сек - Живов

Коментарий

Прошу отнестись с пониманием к данному релизу т.к. качество получилось слабенькое с большим количеством артефактов.Исходник BDRemux но оцифрован с VHS, отсюда и проблемы.

MediaInfo

Общее
Уникальный идентификатор : 195606831393034989059483526261268143655 (0x93288161482F7C66B01050B890A1DE27)
Полное имя : E:\Торренты\Dragons Forever 60fps.mkv
Формат : Matroska
Версия формата : Version 4 / Version 2
Размер файла : 7,31 Гбайт
Продолжительность : 1 ч. 33 м.
Общий поток : 11,2 Мбит/сек
Название фильма : Dragons Forever / Fei lung mang jeung (1988) BD Remux
Дата кодирования : UTC 2016-01-25 14:53:25
Программа кодирования : mkvmerge v6.9.1 ('Blue Panther') 64bit built on Apr 18 2014 18:23:38
Библиотека кодирования : libebml v1.3.0 + libmatroska v1.4.1
Видео
Идентификатор : 1
Формат : AVC
Формат/Информация : Advanced Video Codec
Профиль формата : High@L4.1
Параметр CABAC формата : Да
Параметр ReFrames формата : 6 кадров
Идентификатор кодека : V_MPEG4/ISO/AVC
Продолжительность : 1 ч. 33 м.
Битрейт : 9922 Кбит/сек
Ширина : 1280 пикселей
Высота : 720 пикселей
Соотношение сторон : 16:9
Режим частоты кадров : Постоянный
Частота кадров : 60,000 кадров/сек
Цветовое пространство : YUV
Субдискретизация насыщенности : 4:2:0
Битовая глубина : 8 бит
Тип развёртки : Прогрессивная
Бит/(Пиксели*Кадры) : 0.179
Размер потока : 6,49 Гбайт (89%)
Заголовок : Release by mimok
Библиотека кодирования : x264 core 130 r2273 b3065e6
Настройки программы : cabac=1 / ref=6 / deblock=1:0:0 / analyse=0x3:0x133 / me=umh / subme=8 / psy=1 / psy_rd=1.00:0.15 / mixed_ref=1 / me_range=20 / chroma_me=1 / trellis=2 / 8x8dct=1 / cqm=0 / deadzone=21,11 / fast_pskip=0 / chroma_qp_offset=-3 / threads=6 / lookahead_threads=2 / sliced_threads=0 / nr=0 / decimate=0 / interlaced=0 / bluray_compat=0 / constrained_intra=0 / bframes=8 / b_pyramid=2 / b_adapt=2 / b_bias=0 / direct=1 / weightb=1 / open_gop=0 / weightp=2 / keyint=250 / keyint_min=25 / scenecut=40 / intra_refresh=0 / rc=crf / mbtree=0 / crf=18.0 / qcomp=0.63 / qpmin=10 / qpmax=51 / qpstep=4 / ip_ratio=1.40 / pb_ratio=1.30 / aq=1:1.20
Default : Да
Forced : Нет
Аудио #1
Идентификатор : 2
Формат : AC-3
Формат/Информация : Audio Coding 3
Расширение режима : CM (complete main)
Параметр Endianness формата : Big
Идентификатор кодека : A_AC3
Продолжительность : 1 ч. 33 м.
Вид битрейта : Постоянный
Битрейт : 192 Кбит/сек
Каналы : 2 канала
Расположение каналов : Front: L R
Частота : 48,0 КГц
Битовая глубина : 16 бит
Метод сжатия : С потерями
Размер потока : 129 Мбайт (2%)
Заголовок : мво ТНТ
Язык : Russian
Default : Да
Forced : Нет
Аудио #2
Идентификатор : 3
Формат : AC-3
Формат/Информация : Audio Coding 3
Расширение режима : CM (complete main)
Параметр Endianness формата : Big
Идентификатор кодека : A_AC3
Продолжительность : 1 ч. 33 м.
Вид битрейта : Постоянный
Битрейт : 192 Кбит/сек
Каналы : 2 канала
Расположение каналов : Front: L R
Частота : 48,0 КГц
Битовая глубина : 16 бит
Метод сжатия : С потерями
Размер потока : 129 Мбайт (2%)
Заголовок : мво ТВ1000
Язык : Russian
Default : Нет
Forced : Нет
Аудио #3
Идентификатор : 4
Формат : AC-3
Формат/Информация : Audio Coding 3
Расширение режима : CM (complete main)
Параметр Endianness формата : Big
Идентификатор кодека : A_AC3
Продолжительность : 1 ч. 33 м.
Вид битрейта : Постоянный
Битрейт : 448 Кбит/сек
Каналы : 6 каналов
Расположение каналов : Front: L C R, Side: L R, LFE
Частота : 48,0 КГц
Битовая глубина : 16 бит
Метод сжатия : С потерями
Размер потока : 300 Мбайт (4%)
Заголовок : аво Визгунов
Язык : Russian
Default : Нет
Forced : Нет
Аудио #4
Идентификатор : 5
Формат : AC-3
Формат/Информация : Audio Coding 3
Расширение режима : CM (complete main)
Параметр Endianness формата : Big
Идентификатор кодека : A_AC3
Продолжительность : 1 ч. 33 м.
Вид битрейта : Постоянный
Битрейт : 192 Кбит/сек
Каналы : 2 канала
Расположение каналов : Front: L R
Частота : 48,0 КГц
Битовая глубина : 16 бит
Метод сжатия : С потерями
Размер потока : 129 Мбайт (2%)
Заголовок : аво Живов
Язык : Russian
Default : Нет
Forced : Нет

Скриншоты

[Цитировать]



Показать сообщения:    

Текущее время: 07-Дек 11:43

Часовой пояс: UTC + 3


Вы не можете начинать темы
Вы не можете отвечать на сообщения
Вы не можете редактировать свои сообщения
Вы не можете удалять свои сообщения
Вы не можете голосовать в опросах
Вы не можете прикреплять файлы к сообщениям
Вы не можете скачивать файлы

!ВНИМАНИЕ!
Сайт не предоставляет электронные версии произведений, а занимается лишь коллекционированием и каталогизацией ссылок, присылаемых и публикуемых на форуме нашими читателями. Если вы являетесь правообладателем какого-либо представленного материала и не желаете, чтобы ссылка на него находилась в нашем каталоге, свяжитесь с нами, и мы незамедлительно удалим ее. Файлы для обмена на трекере предоставлены пользователями сайта, и администрация не несет ответственности за их содержание. Просьба не заливать файлы, защищенные авторскими правами, а также файлы нелегального содержания!