[ Сегодня идет свободное скачивание без начисления Download ]


Статистика раздачи
Нет
 
   
 
 
 
-VA - Хиты планеты (Лунная соната)-- Год издания: 2003
Страна: n/a
Жанр: Classical, Instrumental
Продолжительность: 01:13:12-Лейбл издания: Mega Records
Тип альбома: Compilation
Страна-выпуска диска: Russia -Формат: APE
Битрейт аудио: Lossless
Тип рипа: image +.cue
Наличие сканов в содержимом раздачи: да
-

Трэклист


01.Р.Клайдерман - Лунная соната(03:16)
02.У.Мерфи - 5-ая симф.Бетховена(03:03)
03.Р.Клайдерман - К Элизе(02:27)
04.Р.Паульс - Долгая дорога в дюнах(05:03)
05.Шэдоуз - Привет(04:08)
06.Джеймс Ласт – Биская(03:59)
07.Ванесса Мэй - Дымка (ремикс)(03:41)
08.В.Зубков - Тема из к_ф Цыган(03:45)
09.Париж-Франция-Транзит - Сувенир из Рио(04:20)
10.Ор.Каравелли - Ромео и Джульетта(03:03)
11.Рой Бьюхенен - Моя соната(02:47)
12.Шэдоуз - Человек со странностями(02:01)
13.Ф.Арсия - До тех пор, пока я расстроен(04:01)
14.Френсис Гойя - И люблю ее(03:50)
15.Золотая панфлейта - Нежная мелодия(03:17)
16.Окарина II - Окарина , соло на флейте(03:21)
17.Р.Паульс - Маэстро без фрака(05:09)
18.Р.Клайдерман & Д. Ласт - Отражение(04:24)
19.Френсис Лей - ЭммануэльII(03:59)
20.Корол. Филарм.Ор. - Неизменная мелодия(03:46)
-

Лог создания рипа

Exact Audio Copy V0.99 prebeta 5 from 4. May 2009
Отчёт EAC об извлечении, выполненном 9. декабря 2011, 22:07
Various / Хиты планеты
Дисковод: HL-DT-STDVDRAM GH22NS50   Adapter: 1  ID: 0
Режим чтения                 : Достоверность
Использование точного потока : Да
Отключение кэша аудио        : Да
Использование указателей C2  : Нет
Коррекция смещения при чтении                     : 667
Способность читать области Lead-in и Lead-out     : Нет
Заполнение пропущенных сэмплов тишиной            : Да
Удаление блоков с тишиной в начале и конце        : Нет
При вычислениях CRC использовались нулевые сэмплы : Нет
Интерфейс                                         : Встроенный Win32-интерфейс для Win NT/2000
Выходной формат : Внутренние WAV-операции
Формат сэмплов  : 44.100 Гц; 16 бит; стерео
TOC извлечённого CD
     Трек |   Старт  | Длительность | Начальный сектор | Конечный сектор
    ---------------------------------------------------------------------
       1  |  0:00.00 |    3:15.36   |           0      |      14660
       2  |  3:15.36 |    3:02.12   |       14661      |      28322
       3  |  6:17.48 |    2:26.39   |       28323      |      39311
       4  |  8:44.12 |    5:02.30   |       39312      |      61991
       5  | 13:46.42 |    4:07.51   |       61992      |      80567
       6  | 17:54.18 |    3:58.51   |       80568      |      98468
       7  | 21:52.69 |    3:40.24   |       98469      |     114992
       8  | 25:33.18 |    3:44.21   |      114993      |     131813
       9  | 29:17.39 |    4:19.69   |      131814      |     151307
      10  | 33:37.33 |    3:02.39   |      151308      |     164996
      11  | 36:39.72 |    2:46.51   |      164997      |     177497
      12  | 39:26.48 |    2:00.45   |      177498      |     186542
      13  | 41:27.18 |    4:00.63   |      186543      |     204605
      14  | 45:28.06 |    3:49.24   |      204606      |     221804
      15  | 49:17.30 |    3:16.69   |      221805      |     236573
      16  | 52:34.24 |    3:20.12   |      236574      |     251585
      17  | 55:54.36 |    5:08.66   |      251586      |     274751
      18  | 61:03.27 |    4:23.66   |      274752      |     294542
      19  | 65:27.18 |    3:58.24   |      294543      |     312416
      20  | 69:25.42 |    3:45.54   |      312417      |     329345
Характеристики диапазона извлечения и сообщения об ошибках
Выбранный диапазон
     Имя файла C:\Dokumente und Einstellungen\Privat\Eigene Dateien\Exact Audio Copy\Various - Хиты планеты.wav
     Пиковый уровень 100.0 %
     Качество диапазона 100.0 %
     CRC копии E55D2C8F
     Копирование... OK
Ошибок не произошло
AccurateRip: сводка
Трек  1  нет в базе данных
Трек  2  нет в базе данных
Трек  3  нет в базе данных
Трек  4  нет в базе данных
Трек  5  нет в базе данных
Трек  6  нет в базе данных
Трек  7  нет в базе данных
Трек  8  нет в базе данных
Трек  9  нет в базе данных
Трек 10  нет в базе данных
Трек 11  нет в базе данных
Трек 12  нет в базе данных
Трек 13  нет в базе данных
Трек 14  нет в базе данных
Трек 15  нет в базе данных
Трек 16  нет в базе данных
Трек 17  нет в базе данных
Трек 18  нет в базе данных
Трек 19  нет в базе данных
Трек 20  нет в базе данных
Ни одного трека нет в базе AccurateRip
Конец отчёта

Индексная карта (non-compilant .cue)

REM GENRE Instrumental
REM DATE 2003
REM DISCID 3E112714
REM COMMENT "ExactAudioCopy v0.99pb5"
PERFORMER "Various"
TITLE "Хиты планеты"
FILE "Various - Хиты планеты.ape" WAVE
  TRACK 01 AUDIO
    TITLE "Р.Клайдерман - Лунная соната"
    PERFORMER "Р.Клайдерман - Лунная соната"
    INDEX 01 00:00:00
  TRACK 02 AUDIO
    TITLE "У.Мерфи - 5-ая симф.Бетховена"
    PERFORMER "У.Мерфи - 5-ая симф.Бетховена"
    INDEX 01 03:15:36
  TRACK 03 AUDIO
    TITLE "Р.Клайдерман - К Элизе"
    PERFORMER "Р.Клайдерман - К Элизе"
    INDEX 01 06:17:48
  TRACK 04 AUDIO
    TITLE "Р.Паульс - Долгая дорога в дюнах"
    PERFORMER "Р.Паульс - Долгая дорога в дюнах"
    INDEX 01 08:44:12
  TRACK 05 AUDIO
    TITLE "Шэдоуз - Привет"
    PERFORMER "Шэдоуз - Привет"
    INDEX 01 13:46:42
  TRACK 06 AUDIO
    TITLE "Джеймс Ласт – Биская"
    PERFORMER "Джеймс Ласт – Биская"
    INDEX 01 17:54:18
  TRACK 07 AUDIO
    TITLE "Ванесса Мэй - Дымка (ремикс)"
    PERFORMER "Ванесса Мэй - Дымка (ремикс)"
    INDEX 01 21:52:69
  TRACK 08 AUDIO
    TITLE "В.Зубков - Тема из к_ф Цыган"
    PERFORMER "В.Зубков - Тема из к_ф Цыган"
    INDEX 01 25:33:18
  TRACK 09 AUDIO
    TITLE "Париж-Франция-Транзит - Сувенир из Рио"
    PERFORMER "Париж-Франция-Транзит - Сувенир из Рио"
    INDEX 01 29:17:39
  TRACK 10 AUDIO
    TITLE "Ор.Каравелли - Ромео и Джульетта"
    PERFORMER "Ор.Каравелли - Ромео и Джульетта"
    INDEX 01 33:37:33
  TRACK 11 AUDIO
    TITLE "Рой Бьюхенен - Моя соната"
    PERFORMER "Рой Бьюхенен - Моя соната"
    INDEX 01 36:39:72
  TRACK 12 AUDIO
    TITLE "Шэдоуз - Человек со странностями"
    PERFORMER "Шэдоуз - Человек со странностями"
    INDEX 01 39:26:48
  TRACK 13 AUDIO
    TITLE "Ф.Арсия - До тех пор, пока я расстроен"
    PERFORMER "Ф.Арсия - До тех пор, пока я расстроен"
    INDEX 01 41:27:18
  TRACK 14 AUDIO
    TITLE "Френсис Гойя - И люблю ее"
    PERFORMER "Френсис Гойя - И люблю ее"
    INDEX 01 45:28:06
  TRACK 15 AUDIO
    TITLE "Золотая панфлейта - Нежная мелодия"
    PERFORMER "Золотая панфлейта - Нежная мелодия"
    INDEX 01 49:17:30
  TRACK 16 AUDIO
    TITLE "Окарина II - Окарина , соло на флейте"
    PERFORMER "Окарина II - Окарина , соло на флейте"
    INDEX 01 52:34:24
  TRACK 17 AUDIO
    TITLE "Р.Паульс - Маэстро без фрака"
    PERFORMER "Р.Паульс - Маэстро без фрака"
    INDEX 01 55:54:36
  TRACK 18 AUDIO
    TITLE "Р.Клайдерман & Д. Ласт - Отражение"
    PERFORMER "Р.Клайдерман & Д. Ласт - Отражение"
    INDEX 01 61:03:27
  TRACK 19 AUDIO
    TITLE "Френсис Лей - ЭммануэльII"
    PERFORMER "Френсис Лей - ЭммануэльII"
    INDEX 01 65:27:18
  TRACK 20 AUDIO
    TITLE "Корол. Филарм.Ор. - Неизменная мелодия"
    PERFORMER "Корол. Филарм.Ор. - Неизменная мелодия"
    INDEX 01 69:25:42
--

[Цитировать]



Показать сообщения:    

Текущее время: 10-Дек 00:20

Часовой пояс: UTC + 3


Вы не можете начинать темы
Вы не можете отвечать на сообщения
Вы не можете редактировать свои сообщения
Вы не можете удалять свои сообщения
Вы не можете голосовать в опросах
Вы не можете прикреплять файлы к сообщениям
Вы не можете скачивать файлы

!ВНИМАНИЕ!
Сайт не предоставляет электронные версии произведений, а занимается лишь коллекционированием и каталогизацией ссылок, присылаемых и публикуемых на форуме нашими читателями. Если вы являетесь правообладателем какого-либо представленного материала и не желаете, чтобы ссылка на него находилась в нашем каталоге, свяжитесь с нами, и мы незамедлительно удалим ее. Файлы для обмена на трекере предоставлены пользователями сайта, и администрация не несет ответственности за их содержание. Просьба не заливать файлы, защищенные авторскими правами, а также файлы нелегального содержания!