[ Сегодня идет свободное скачивание без начисления Download ]


Статистика раздачи
Скачал: [ 1 ]
 
   
 
Top  
 
 
Прогулка / The Walk Название: Прогулка
Оригинальное название: The Walk
Год выпуска: 2015
Страна: США
Жанр: триллер, драма, приключения, биография
Продолжительность: 02:03:11
Перевод: Дубляж
Субтитры: русские (Форсированные), русские (Полные), английские (Полные)
Режиссер: Роберт Земекис
В ролях: Джозеф Гордон-Левитт (Philippe Petit), Бен Кингсли (Papa Rudy), Стив Валентайн (Barry Greenhouse), Шарлотта Ле Бон (Annie), Джеймс Бэдж Дэйл (Jean-Pierre / J.P.), Бен Шварц (Albert), Бенедикт Сэмюэл (David), Мизинга Мвинга (Officer Foley), Дэниэл Аррош (Officer Clemenza), Джейсон Делайн (Officer Tessio), Серджо Ди Зио (Officer Genco), Даррел Ли-Изард (Officer Washington)
Описание:
Вы боитесь высоты? А можете представить себя идущим по натянутому канату на высоте более 400м без всякой страховки? Потоки ветра обдувают вас, а внизу - город и тысячи взволнованных взглядов, устремленных вверх.
История о том, как французский канатоходец Филипп Пети отважился совершить легендарный трюк - пройти без страховки по канату, натянутому между небоскребами в Нью-Йорке.
Рейтинг:

MPAA: PG - Рекомендуется присутствие родителей
Качество: BDRip-AVC
Формат: MKV
Видео: AVC, 1024x424 (2.40:1), 3810 kbps, 59,940 fps, 0,146 bpp
Аудио: русский / AC3 / 5.1 / 48 kHz / 640 kbps / 16 bit
Навигация по главам: есть

ОтчетМедиаИнфо

General
Unique ID : 178479978280322719548590885005477019639 (0x8645FE53AE406C0F9BE645577DFFFFF7)
Complete name : D:Прогулка BDrip-AVC 60fps.mkv
Format : Matroska
Format version : Version 4 / Version 2
File size : 3.83 GiB
Duration : 2h 3mn
Overall bit rate : 4 455 Kbps
Movie name : Tiberiumsun69
Encoded date : UTC 2016-01-31 08:39:24
Writing application : mkvmerge v8.3.0 ('Over the Horizon') 64bit
Writing library : libebml v1.3.1 + libmatroska v1.4.2
Attachment : Yes
Video
ID : 1
Format : AVC
Format/Info : Advanced Video Codec
Format profile : [email protected]
Format settings, CABAC : Yes
Format settings, ReFrames : 4 frames
Codec ID : V_MPEG4/ISO/AVC
Duration : 2h 3mn
Bit rate : 3 810 Kbps
Width : 1 024 pixels
Height : 424 pixels
Display aspect ratio : 2.40:1
Frame rate : 59.940 fps
Color space : YUV
Chroma subsampling : 4:2:0
Bit depth : 8 bits
Scan type : Progressive
Bits/(Pixel*Frame) : 0.146
Stream size : 3.21 GiB (84%)
Title : Tiberiumsun69
Writing library : x264 core 146 r2538 121396c
Encoding settings : cabac=1 / ref=3 / deblock=1:0:0 / analyse=0x3:0x113 / me=umh / subme=9 / psy=1 / psy_rd=1.00:0.10 / mixed_ref=1 / me_range=32 / chroma_me=1 / trellis=2 / 8x8dct=1 / cqm=0 / deadzone=21,11 / fast_pskip=0 / chroma_qp_offset=-3 / threads=12 / lookahead_threads=3 / sliced_threads=0 / nr=0 / decimate=1 / interlaced=0 / bluray_compat=0 / constrained_intra=0 / bframes=16 / b_pyramid=2 / b_adapt=2 / b_bias=0 / direct=3 / weightb=1 / open_gop=0 / weightp=2 / keyint=250 / keyint_min=25 / scenecut=40 / intra_refresh=0 / rc_lookahead=40 / rc=2pass / mbtree=1 / bitrate=3810 / ratetol=1.0 / qcomp=0.60 / qpmin=0 / qpmax=69 / qpstep=4 / cplxblur=20.0 / qblur=0.5 / vbv_maxrate=14000 / vbv_bufsize=14000 / nal_hrd=none / filler=0 / ip_ratio=1.40 / aq=1:1.00
Language : English
Default : Yes
Forced : No
Audio
ID : 2
Format : AC-3
Format/Info : Audio Coding 3
Mode extension : CM (complete main)
Codec ID : A_AC3
Duration : 2h 3mn
Bit rate mode : Constant
Bit rate : 640 Kbps
Channel(s) : 6 channels
Channel positions : Front: L C R, Side: L R, LFE
Sampling rate : 48.0 KHz
Bit depth : 16 bits
Compression mode : Lossy
Stream size : 564 MiB (14%)
Title : Дубляж
Language : Russian
Default : Yes
Forced : No
Text #1
ID : 3
Format : UTF-8
Codec ID : S_TEXT/UTF8
Codec ID/Info : UTF-8 Plain Text
Title : Форсированные
Language : Russian
Default : Yes
Forced : No
Text #2
ID : 4
Format : UTF-8
Codec ID : S_TEXT/UTF8
Codec ID/Info : UTF-8 Plain Text
Title : Полные
Language : Russian
Default : No
Forced : No
Text #3
ID : 5
Format : UTF-8
Codec ID : S_TEXT/UTF8
Codec ID/Info : UTF-8 Plain Text
Title : Полные
Language : English
Default : No
Forced : No
Menu
00:00:00.000 : en:Chapter 1
00:05:15.773 : en:Chapter 2
00:10:06.147 : en:Chapter 3
00:14:51.807 : en:Chapter 4
00:23:30.867 : en:Chapter 5
00:32:22.148 : en:Chapter 6
00:41:46.879 : en:Chapter 7
00:46:32.414 : en:Chapter 8
00:55:38.460 : en:Chapter 9
01:04:37.373 : en:Chapter 10
01:11:17.314 : en:Chapter 11
01:17:40.405 : en:Chapter 12
01:24:37.072 : en:Chapter 13
01:33:46.746 : en:Chapter 14
01:42:21.927 : en:Chapter 15
01:50:29.539 : en:Chapter 16

Скриншоты

Авторство группы

[Цитировать]



Показать сообщения:    

Текущее время: 05-Дек 05:32

Часовой пояс: UTC + 3


Вы не можете начинать темы
Вы не можете отвечать на сообщения
Вы не можете редактировать свои сообщения
Вы не можете удалять свои сообщения
Вы не можете голосовать в опросах
Вы не можете прикреплять файлы к сообщениям
Вы не можете скачивать файлы

!ВНИМАНИЕ!
Сайт не предоставляет электронные версии произведений, а занимается лишь коллекционированием и каталогизацией ссылок, присылаемых и публикуемых на форуме нашими читателями. Если вы являетесь правообладателем какого-либо представленного материала и не желаете, чтобы ссылка на него находилась в нашем каталоге, свяжитесь с нами, и мы незамедлительно удалим ее. Файлы для обмена на трекере предоставлены пользователями сайта, и администрация не несет ответственности за их содержание. Просьба не заливать файлы, защищенные авторскими правами, а также файлы нелегального содержания!