[ Сегодня идет свободное скачивание без начисления Download ]


Статистика раздачи
Нет
 
   
 
 
 
Шал / Shal
Год выпуска: 2012
Страна: Казахстан
Производство: Студия Казахфильм
Жанр: драма
Режиссер: Ермек Турсунов
В ролях: Ерболат Тогузаков , Орынбек Молдахан , Исбек Абильмажинов , Ондас Бесикбасов , Ержан Бесикбасов , Ержан Нусипакынов , Олег Полторацких , Диана Мукушева , Аман Малдыбаев , Игорь Горшков
Перевод: Любительский (одноголосый)
Субтитры: Отсутствуют
Описание: Небольшая семья — старик, невестка и внук — ведет обычную и ничем непримечательную жизнь в далекой степи. Им нельзя ссориться, хотя их общение весьма ограничено. Им нужно уметь прощать и быть прозорливыми, чтобы не расплескать по дороге важные истины. Им важно жить по-людски и важно, чтобы старик успел передать своему внуку главные ценности этой жизни.
Великая степная мораль о необходимости делать добро и не ждать в ответ благодарности, о неспешном и несуетном течении времени без жажды наживы и богатств, о неприхотливости и самодостаточности, о неразрывной связи с легендарным кочевым прошлым нынешних ее наследников…


Качество: DVDRip
Продолжительность: 01:41:56
Формат: AVI
Видео кодек: XviD
Аудио кодек: AC3
Видео: 640x336 (1.90:1), 25 fps, XviD MPEG-4 ~823 kbps avg, 0.15 bit/pixel
Аудио: 48 kHz, MPEG Layer 3, 2 ch, ~128.00 kbps avg

Media Info

Общее
Полное имя                               : D:\заливка\38532031.avi
Формат                                   : AVI
Формат/Информация                        : Audio Video Interleave
Размер файла                             : 701 Мбайт
Продолжительность                        : 1 ч. 41 м.
Общий поток                              : 962 Кбит/сек
Программа кодирования                    : VirtualDubMod 1.5.10.3 | www.virtualdub-fr.org || (build 2550/release)
Библиотека кодирования                   : VirtualDubMod build 2550/release
Видео
Идентификатор                            : 0
Формат                                   : MPEG-4 Visual
Профиль формата                          : Advanced [email protected]
Параметр BVOP формата                    : 2
Параметр QPel формата                    : Нет
Параметр GMC формата                     : Без точки перехода
Параметр матрицы формата                 : Default (H.263)
Режим смешивания                         : Сжатый битовый поток
Идентификатор кодека                     : XVID
Идентификатор кодека/Подсказка           : XviD
Продолжительность                        : 1 ч. 41 м.
Битрейт                                  : 824 Кбит/сек
Ширина                                   : 640 пикселей
Высота                                   : 336 пикселей
Соотношение сторон                       : 1,905
Частота кадров                           : 25,000 кадров/сек
Цветовое пространство                    : YUV
Субдискретизация насыщенности            : 4:2:0
Битовая глубина                          : 8 бит
Тип развёртки                            : Прогрессивная
Метод сжатия                             : С потерями
Бит/(Пиксели*Кадры)                      : 0.153
Размер потока                            : 601 Мбайт (86%)
Библиотека кодирования                   : XviD 64
Аудио
Идентификатор                            : 1
Формат                                   : MPEG Audio
Версия формата                           : Version 1
Профиль формата                          : Layer 3
Идентификатор кодека                     : 55
Идентификатор кодека/Подсказка           : MP3
Продолжительность                        : 1 ч. 41 м.
Вид битрейта                             : Постоянный
Битрейт                                  : 128 Кбит/сек
Каналы                                   : 2 канала
Частота                                  : 48,0 КГц
Метод сжатия                             : С потерями
Размер потока                            : 93,3 Мбайт (13%)
Выравнивание                             : Соединение по промежуткам
Продолжительность промежутка             : 40  мс. (1,00 видеокадр)
Время предзагрузки промежутка            : 504  мс.
Библиотека кодирования                   : LAMELAME_MAJOR_VERSI
[th]http://torrentsclub.org/pictures/2359b921c3244f5b41...ed73d67.png[/th] [th]http://torrentsclub.org/pictures/2d52447d25368062af...82f64d7.png[/th] [th]http://torrentsclub.org/pictures/3abd39261bcab13f6d...f15745d.png[/th]

[Цитировать]

Топик был перенесен из форума Азиатские фильмы в форум Казахстанское кино


J-DoG



Показать сообщения:    

Текущее время: 05-Дек 03:31

Часовой пояс: UTC + 3


Вы не можете начинать темы
Вы не можете отвечать на сообщения
Вы не можете редактировать свои сообщения
Вы не можете удалять свои сообщения
Вы не можете голосовать в опросах
Вы не можете прикреплять файлы к сообщениям
Вы не можете скачивать файлы

!ВНИМАНИЕ!
Сайт не предоставляет электронные версии произведений, а занимается лишь коллекционированием и каталогизацией ссылок, присылаемых и публикуемых на форуме нашими читателями. Если вы являетесь правообладателем какого-либо представленного материала и не желаете, чтобы ссылка на него находилась в нашем каталоге, свяжитесь с нами, и мы незамедлительно удалим ее. Файлы для обмена на трекере предоставлены пользователями сайта, и администрация не несет ответственности за их содержание. Просьба не заливать файлы, защищенные авторскими правами, а также файлы нелегального содержания!