[ Сегодня идет свободное скачивание без начисления Download ]


Статистика раздачи
Буду качать: [ 2 ]
Качаю: [ 1 ]
Скачал: [ 12 ]
 
   
 
Top  
 
 
- Дмитрий Валак | Профессия верстальщик (2015) PCRec [H.264/720p-1080p]- Автор (режиссер): Дмитрий Валак
Жанр: Веб-дизайн, верстка
Доп. материалы: Есть
Описание:
Верстальщик - очень востребованная профессия и она набирает обороты.
Есть множество способов заработка на верстке. Каждый способ заработка индивидуальный и Вы можете выбрать себе то, что Вам больше по душе.
Сколько может зарабатывать фрилансер?
Выполняйте проекты разной сложности и зарабатывайте неплохие деньги. Некоторые проекты делаются минут за 10, и платят 300-600 рублей. Таких проектов можно сделать штук 10 за день и заработать 3000-6000 рублей всего за один день!
Работа в офисе.
Если Вы хотите стабильности, хотите быстро набраться опыта, то можете устроиться в офис. Это очень хороший способ заработка и хорошая школа + много новых знакомств.
Заработок верстальщика, работающего в офисе, зависит от региона, где он проживает. Это может быть 30 000 - 150 000 рублей.
Создание и продажа шаблонов.
Если вам не нравится фриланс, не хотите работать "на дядю", то Вы можете создавать шаблоны и продавать их на специальных площадках. Вам не придется общаться с заказчиками, слушать их пожелания, делать правки по 10 раз и не придется терпеть своего начальника.
Сколько можно зарабатывать на продаже шаблонов? В среднем Вы будете получать 8-12$ с одной продажи шаблона. Допустим, Вы продаете по минимуму, 1 шаблон в день, итого в среднем получим 10$*30 = 300$ в месяц на автопилоте. А у вас может быть 1 шаблон, или 2, или 5, или 10.
Продолжительность: 10:07:57
Качество видео: PCRec
Видео: AVC/H.264, 1280x720 - 1920x1080, ~267-2552 kbp
Аудио: AAC, 2 ch, 45,7-192 kbps, VBR

Программа курса:

HTML, HTML5
Вы хорошо изучите самые основы верстки. Изучите все теги, узнаете что такое атрибуты, научитесь их использовать и правильно оформлять код.
CSS, CSS3
Вы научитесь использовать каскадные таблицы стилей, научитесь красиво и грамотно писать код и выработаете правильный стиль написания кода.
Препроцессор LESS
Познакомитесь с препроцессором LESS, который упрощает и ускоряет работу с CSS. Я уверен, Вам понравится и в будущем вы захотите изучить и другие.
Photoshop
Вы изучите работу с Photoshop. Научитесь использовать его для нарезки макетов любой сложности.
Валидный, кроссбраузерный код
Вы научитесь писать такой код, который будет правильный в соответствии установленных правил. А так же научитесь писать код, который будет одинаково работать во всех браузерах.
Правильное оформление кода (HTML и CSS)
Недостаточно знать теги и правила CSS. Нужно уметь писать и оформлять их грамотно, чтобы в вашей работе небыло хаоса, чтобы вам самим было легко и приятно работать.
Множество полезных сервисов
Вы узнаете о множестве полезных сайтов и сервисов, которые я ежедневно использую в работе для ускорения процесса, оптимизации, для различных задач, которые в ручную делать очень долго и сложно.
Как купить домен и хостинг
Вы научитесь покупать домен и хостинг и выкладывать свои сайты в интернет.
Много практики под моим контролем
Основы и теория нужны, но без практики хорошего результата не добиться. Поэтому вас ждет много домашних заданий и практики на реальных макетах.
Способы заработка на верстке
Вы узнаете какие есть способы заработка на верстке и определитесь какой способ подходит именно Вам.

Mediainfo:

Общее
Полное имя                               : C:\Валак Д. - Профессия верстальщик - 2015\HTML_CSS\section7-lesson1.mp4
Формат                                   : MPEG-4
Профиль формата                          : Base Media / Version 2
Идентификатор кодека                     : mp42 (isom/mp42)
Размер файла                             : 285 Мбайт
Продолжительность                        : 34 м.
Режим общего битрейта                    : Переменный
Общий поток                              : 1158 Кбит/сек
Дата кодирования                         : UTC 2015-05-31 19:22:14
Дата пометки                             : UTC 2015-05-31 19:22:14
gsst                                     : 0
gstd                                     : 2065275
gssd                                     : B4A7DD107
gshh                                     : r7---sn-5hn7su7e.googlevideo.com
Видео
Идентификатор                            : 1
Формат                                   : AVC
Формат/Информация                        : Advanced Video Codec
Профиль формата                          : [email protected]
Параметр CABAC формата                   : Да
Параметр ReFrames формата                : 1 кадр
Параметр GOP формата                     : M=1, N=60
Идентификатор кодека                     : avc1
Идентификатор кодека/Информация          : Advanced Video Coding
Продолжительность                        : 34 м.
Битрейт                                  : 963 Кбит/сек
Максимальный битрейт                     : 5039 Кбит/сек
Ширина                                   : 1280 пикселей
Высота                                   : 720 пикселей
Соотношение сторон                       : 16:9
Режим частоты кадров                     : Постоянный
Частота кадров                           : 30,000 кадров/сек
Цветовое пространство                    : YUV
Субдискретизация насыщенности            : 4:2:0
Битовая глубина                          : 8 бит
Тип развёртки                            : Прогрессивная
Бит/(Пиксели*Кадры)                      : 0.035
Размер потока                            : 237 Мбайт (83%)
Дата пометки                             : UTC 2015-05-31 19:22:46
Аудио
Идентификатор                            : 2
Формат                                   : AAC
Формат/Информация                        : Advanced Audio Codec
Профиль формата                          : LC
Идентификатор кодека                     : 40
Продолжительность                        : 34 м.
Вид битрейта                             : Переменный
Битрейт                                  : 192 Кбит/сек
Максимальный битрейт                     : 202 Кбит/сек
Каналы                                   : 2 канала
Расположение каналов                     : Front: L R
Частота                                  : 44,1 КГц
Частота кадров                           : 43,066 кадра/сек (1024 spf)
Метод сжатия                             : С потерями
Размер потока                            : 47,3 Мбайт (17%)
Заголовок                                : IsoMedia File Produced by Google, 5-11-2011
Язык                                     : English
Дата кодирования                         : UTC 2015-05-31 19:22:42
Дата пометки                             : UTC 2015-05-31 19:22:46
Код:
Общее
Полное имя                               : C:\Валак Д. - Профессия верстальщик - 2015\HTML_CSS\section6-lesson3.mp4
Формат                                   : MPEG-4
Профиль формата                          : Base Media / Version 2
Идентификатор кодека                     : mp42 (isom/mp42)
Размер файла                             : 279 Мбайт
Продолжительность                        : 14 м.
Режим общего битрейта                    : Переменный
Общий поток                              : 2599 Кбит/сек
Дата кодирования                         : UTC 2015-05-18 17:57:21
Дата пометки                             : UTC 2015-05-18 17:57:21
Видео
Идентификатор                            : 1
Формат                                   : AVC
Формат/Информация                        : Advanced Video Codec
Профиль формата                          : [email protected]
Параметр CABAC формата                   : Нет
Параметр ReFrames формата                : 3 кадра
Параметр GOP формата                     : M=1, N=50
Идентификатор кодека                     : avc1
Идентификатор кодека/Информация          : Advanced Video Coding
Продолжительность                        : 14 м.
Битрейт                                  : 2552 Кбит/сек
Ширина                                   : 1920 пикселей
Высота                                   : 1080 пикселей
Соотношение сторон                       : 16:9
Режим частоты кадров                     : Постоянный
Частота кадров                           : 10,000 кадров/сек
Цветовое пространство                    : YUV
Субдискретизация насыщенности            : 4:2:0
Битовая глубина                          : 8 бит
Тип развёртки                            : Прогрессивная
Бит/(Пиксели*Кадры)                      : 0.123
Размер потока                            : 274 Мбайт (98%)
Язык                                     : English
Дата кодирования                         : UTC 2015-05-18 17:57:21
Дата пометки                             : UTC 2015-05-18 17:57:21
Цветовой диапазон                        : Limited
Аудио
Идентификатор                            : 2
Формат                                   : AAC
Формат/Информация                        : Advanced Audio Codec
Профиль формата                          : LC
Идентификатор кодека                     : 40
Продолжительность                        : 14 м.
Продолжительность оригинала              : 14 м.
Вид битрейта                             : Переменный
Битрейт                                  : 45,7 Кбит/сек
Максимальный битрейт                     : 216 Кбит/сек
Каналы                                   : 2 канала
Расположение каналов                     : Front: L R
Частота                                  : 44,1 КГц
Частота кадров                           : 43,066 кадра/сек (1024 spf)
Метод сжатия                             : С потерями
Размер потока                            : 4,89 Мбайт (2%)
Размер потока оригинала                  : 4,89 Мбайт (2%)
Язык                                     : English
Дата кодирования                         : UTC 2015-05-18 17:57:21
Дата пометки                             : UTC 2015-05-18 17:57:21
mdhd_Duration                            : 899379
Скриншоты:

[Цитировать]



Показать сообщения:    

Текущее время: 06-Дек 03:53

Часовой пояс: UTC + 3


Вы не можете начинать темы
Вы не можете отвечать на сообщения
Вы не можете редактировать свои сообщения
Вы не можете удалять свои сообщения
Вы не можете голосовать в опросах
Вы не можете прикреплять файлы к сообщениям
Вы не можете скачивать файлы

!ВНИМАНИЕ!
Сайт не предоставляет электронные версии произведений, а занимается лишь коллекционированием и каталогизацией ссылок, присылаемых и публикуемых на форуме нашими читателями. Если вы являетесь правообладателем какого-либо представленного материала и не желаете, чтобы ссылка на него находилась в нашем каталоге, свяжитесь с нами, и мы незамедлительно удалим ее. Файлы для обмена на трекере предоставлены пользователями сайта, и администрация не несет ответственности за их содержание. Просьба не заливать файлы, защищенные авторскими правами, а также файлы нелегального содержания!