[ Сегодня идет свободное скачивание без начисления Download ]


Статистика раздачи
Скачал: [ 1 ]
 
   
 
Top  
 
 
Лазерная команда / Lazer Team (2015) Информация о фильме
Название: Лазерная команда
Оригинальное название: Lazer Team
Год выхода: 2015
Жанр: фантастика, боевик, комедия
Режиссер: Matt Hullum
В ролях: Алан Ричсон, Ирина Воронина, Колтон Данн, Александрия ДеБерри, Гэвин Фри, Бёрни Бёрнс, Джоэль Хейман, Майкл Джонс, Джереми Ст. Джеймс, Далтон Е. Грэй
О фильме: Из космоса поступает сообщение, тщательно закодированное. Сигнал гласит, что планете Земля угрожает опасность. Скоро на её поверхность прибудут пришельцы, и они явно не настроены дружелюбно по отношению к людям. По стечению обстоятельств, компания из 4 очень разных друзей станет свидетелями крушения космического корабля. На борту ребята находят части специального снаряжения. Каждый из героев с нетерпением примеряет на себя загадочные объекты. Так парни становятся обладателями особых приспособлений в виде шлема, специальной рукоятки, лазерного протектора для кисти и конечно одной пары «обуви». Разобрав удивительное добро и поделив между собой, молодые люди не думали, что привлекут внимание правительства. Теперь им предстоит сверхсложная задача совершить контакт с инопланетной расой и нанести ответный удар в случае нападения. Тренировать всю компанию принимается Адам — настоящий профессионал военного дела. Он должен наставить недалёких обладателей космического снаряжения на путь защиты страны, научив особенностям пользования «инопланетными вещами». По мере тренировок ребята ощущают сплочение, и узнают больше о свойствах того снаряжения, что они раздобыли на корабле.

Выпущено: США / Rooster Teeth Productions
Продолжительность: 01:42:25
Озвучивание: Любительское (двухголосое) [Parovoz Production]
Роли озвучивали: den904 & DeadSno
Примечание: Релиз без рекламы. Присутствует ненормативная лексика.
Файл
Формат: MKV
Качество: WEB-DL 720p
Видео: MPEG-4 AVC, 3510 kb/s, 1280x536
Аудио: Russian / English: AC3, 192 kb/s (2 ch)

MI

Format : Matroska
Format version : Version 2
File size : 2.79 GiB
Duration : 1h 42mn
Overall bit rate : 3 893 Kbps
Encoded date : UTC 2016-02-03 15:33:37
Writing application : mkvmerge v7.8.0 ('River Man') 32bit built on Apr 3 2015 12:11:22
Writing library : libebml v1.3.1 + libmatroska v1.4.2
Video
ID : 1
Format : AVC
Format/Info : Advanced Video Codec
Format profile : [email protected]
Format settings, CABAC : Yes
Format settings, ReFrames : 4 frames
Codec ID : V_MPEG4/ISO/AVC
Duration : 1h 42mn
Bit rate : 3 510 Kbps
Width : 1 280 pixels
Height : 536 pixels
Display aspect ratio : 2.40:1
Frame rate mode : Constant
Frame rate : 23.976 fps
Color space : YUV
Chroma subsampling : 4:2:0
Bit depth : 8 bits
Scan type : Progressive
Bits/(Pixel*Frame) : 0.213
Stream size : 2.45 GiB (88%)
Writing library : x264 core 142 r2431+42 c69a006 tMod [[email protected] X86_64]
Encoding settings : cabac=1 / ref=3 / deblock=1:-3:-3 / analyse=0x3:0x133 / me=umh / subme=8 / psy=1 / fade_compensate=0.00 / psy_rd=1.00:1.00 / mixed_ref=1 / me_range=48 / chroma_me=1 / trellis=2 / 8x8dct=1 / cqm=0 / deadzone=21,11 / fast_pskip=0 / chroma_qp_offset=-4 / threads=16 / lookahead_threads=2 / sliced_threads=0 / nr=0 / decimate=1 / interlaced=0 / bluray_compat=0 / constrained_intra=0 / fgo=0 / bframes=3 / b_pyramid=2 / b_adapt=2 / b_bias=0 / direct=3 / weightb=1 / open_gop=0 / weightp=2 / keyint=240 / keyint_min=23 / scenecut=40 / intra_refresh=0 / rc_lookahead=150 / rc=2pass / mbtree=1 / bitrate=3510 / ratetol=1.0 / qcomp=0.60 / qpmin=0:0:0 / qpmax=69:69:69 / qpstep=4 / cplxblur=20.0 / qblur=0.5 / vbv_maxrate=62500 / vbv_bufsize=78125 / nal_hrd=none / filler=0 / ip_ratio=1.20 / aq=2:0.70 / aq-sensitivity=10.00 / aq-factor=1.00:1.00:1.00 / aq2=0 / aq3=0
Language : English
Default : Yes
Forced : No
Color range : Limited
Matrix coefficients : BT.709
Audio #1
ID : 2
Format : AC-3
Format/Info : Audio Coding 3
Mode extension : CM (complete main)
Format settings, Endianness : Big
Codec ID : A_AC3
Duration : 1h 42mn
Bit rate mode : Constant
Bit rate : 192 Kbps
Channel(s) : 2 channels
Channel positions : Front: L R
Sampling rate : 48.0 KHz
Bit depth : 16 bits
Compression mode : Lossy
Stream size : 141 MiB (5%)
Language : Russian
Default : Yes
Forced : No
Audio #2
ID : 3
Format : AC-3
Format/Info : Audio Coding 3
Mode extension : CM (complete main)
Format settings, Endianness : Big
Codec ID : A_AC3
Duration : 1h 42mn
Bit rate mode : Constant
Bit rate : 192 Kbps
Channel(s) : 2 channels
Channel positions : Front: L R
Sampling rate : 48.0 KHz
Bit depth : 16 bits
Compression mode : Lossy
Stream size : 141 MiB (5%)
Language : English
Default : No
Forced : No

Скриншоты

[Цитировать]



Показать сообщения:    

Текущее время: 06-Дек 19:06

Часовой пояс: UTC + 3


Вы не можете начинать темы
Вы не можете отвечать на сообщения
Вы не можете редактировать свои сообщения
Вы не можете удалять свои сообщения
Вы не можете голосовать в опросах
Вы не можете прикреплять файлы к сообщениям
Вы не можете скачивать файлы

!ВНИМАНИЕ!
Сайт не предоставляет электронные версии произведений, а занимается лишь коллекционированием и каталогизацией ссылок, присылаемых и публикуемых на форуме нашими читателями. Если вы являетесь правообладателем какого-либо представленного материала и не желаете, чтобы ссылка на него находилась в нашем каталоге, свяжитесь с нами, и мы незамедлительно удалим ее. Файлы для обмена на трекере предоставлены пользователями сайта, и администрация не несет ответственности за их содержание. Просьба не заливать файлы, защищенные авторскими правами, а также файлы нелегального содержания!