[ Сегодня идет свободное скачивание без начисления Download ]


Статистика раздачи
Нет
 
   
 
Top  
 
 
- Сандомирский плацдарм. Истребители «Тигров» (2015-2016) WEB-DL [H.264/720-LQ] (2 серии из 2) - Телекомпания: Россия, Беларусь
Жанр: Документальный, война, история, анимация
Описание:
Документальный фильм с элементами реконструкции от студии «World of Tanks». Как всегда в фильме делается упор на применение танковых соединений - как с нашей стороны так и со стороны нацисткой Германии. В августе 1944 года советские войска вошли на территорию Польши и захватили плацдармы на западном берегу реки Вислы около города Сандомир. Командование решает развить успех и три бригады шестого танкового корпуса (50 Т-34) стремительным налетом наносят удар южнее в сторону Кракова освобождая город Вислица. Обороной немцев на данном участке командовал немецкий генерал Йозеф Харпе, он планирует одержать небольшую но очень важную победу, а именно - окружить советский танковый корпус и разгромить советские переправы под Сандомиром. В этом наступлении немцы задействуют новые Тигры II - Panzerkampfwagen VI Ausf. B. Они пойдут напролом, потери в технике и людях второстепенны, главное - скинуть советские войска с плацдарма.
Главная стратегическая задача немецкого командования - первым делом уничтожить переправы через Вислу, тем самым оторвать советские войска от тылов и подкреплений, затем рассечь на несколько частей и уничтожить. Это была не самоубийственная атака обреченных, немцам еще было за что воевать. 1944 год стал самым продуктивным для германской военной промышленности.
В фильме много хроники, анимированных карт, пояснений тактики, реконструкции, графики и многих интересных фактов.
Продолжительность: 2 х ~ 00:22:39
Качество видео: WEB-DL
Видео: AVC/H.264, 1280х720, ~2450 kbps
Аудио: AC3, 2 ch, 192 kbps, CBR

Содержание

1 серия
В августе 1944 года советские войска вошли на территорию Польши и захватили плацдармы на западном берегу реки Вислы около города Сандомир. Танковый удар на юге Польши нарушил все планы Вермахта. Немцы рассчитывали остановить противника на восточном берегу и создать мощную оборонительную линию. Выигранное время позволило бы оснастить танковые войска новейшим чудо-оружием Wunderwaffe. Баранув-Сандомирские плацдармы Красной Армии меняли ситуацию в корне!
2 серия
В августе 1944 года советские войска вошли на территорию Польши и захватили стратегически важные плацдармы у города Сандомир. Для их ликвидации группа армий под командованием генерала Харпе была усилена батальоном новейших танков-вундерваффе - «Королевскими тиграми». В 6-ом гвардейском танковом корпусе полковника Архипова преобладали старые «тридцатьчетвёрки» с орудием калибра 76 миллиметров и лишь один новейший танк Т-34-85 под командованием младшего лейтенанта Оськина. Предстоящее сражение должно было стать жестоким испытанием и для танкистов, и для командования, и для военной техники.

Mediainfo:

Сандомирский.плацдарм.Истребители.Тигров.(1.серия).2015.720p.WEB-DL.mkv
Формат                                   : Matroska
Версия формата                           : Version 2
Размер файла                             : 427 Мбайт
Продолжительность                        : 22 м.
Общий поток                              : 2644 Кбит/сек
Дата кодирования                         : UTC 2016-02-04 21:29:08
Программа кодирования                    : mkvmerge v6.1.0 ('Old Devil') built on Mar  4 2013 09:10:42
Библиотека кодирования                   : libebml v1.3.0 + libmatroska v1.4.0
Видео
Идентификатор                            : 1
Формат                                   : AVC
Формат/Информация                        : Advanced Video Codec
Профиль формата                          : [url=mailto:High@L4.0]High@L4.0[/url]
Параметр CABAC формата                   : Да
Параметр ReFrames формата                : 8 кадров
Идентификатор кодека                     : V_MPEG4/ISO/AVC
Продолжительность                        : 22 м.
Битрейт                                  : 2450 Кбит/сек
Ширина                                   : 1280 пикселей
Высота                                   : 720 пикселей
Соотношение сторон                       : 16:9
Режим частоты кадров                     : Постоянный
Частота кадров                           : 25,000 кадров/сек
Цветовое пространство                    : YUV
Субдискретизация насыщенности            : 4:2:0
Битовая глубина                          : 8 бит
Тип развёртки                            : Прогрессивная
Бит/(Пиксели*Кадры)                      : 0.106
Размер потока                            : 387 Мбайт (91%)
Библиотека кодирования                   : x264 core 130 r2273 b3065e6
Настройки программы                      : cabac=1 / ref=8 / deblock=1:-1:-1 / analyse=0x3:0x133 / me=umh / subme=7 / psy=1 / psy_rd=1.00:0.10 / mixed_ref=1 / me_range=16 / chroma_me=1 / trellis=2 / 8x8dct=1 / cqm=0 / deadzone=21,11 / fast_pskip=0 / chroma_qp_offset=-3 / threads=6 / lookahead_threads=1 / sliced_threads=0 / nr=0 / decimate=1 / interlaced=0 / bluray_compat=0 / constrained_intra=0 / bframes=3 / b_pyramid=2 / b_adapt=2 / b_bias=0 / direct=3 / weightb=1 / open_gop=0 / weightp=2 / keyint=250 / keyint_min=25 / scenecut=40 / intra_refresh=0 / rc_lookahead=50 / rc=2pass / mbtree=1 / bitrate=2450 / ratetol=1.0 / qcomp=0.60 / qpmin=0 / qpmax=69 / qpstep=4 / cplxblur=20.0 / qblur=0.5 / ip_ratio=1.40 / aq=1:1.00
Default                                  : Да
Forced                                   : Нет
Аудио
Идентификатор                            : 2
Формат                                   : AC-3
Формат/Информация                        : Audio Coding 3
Расширение режима                        : CM (complete main)
Параметр Endianness формата              : Big
Идентификатор кодека                     : A_AC3
Продолжительность                        : 22 м.
Вид битрейта                             : Постоянный
Битрейт                                  : 192 Кбит/сек
Каналы                                   : 2 канала
Расположение каналов                     : Front: L R
Частота                                  : 48,0 КГц
Битовая глубина                          : 16 бит
Метод сжатия                             : С потерями
Размер потока                            : 31,0 Мбайт (7%)
Default                                  : Да
Forced                                   : Нет
Скриншоты:

Дополнительные скриншоты:






[Цитировать]



Показать сообщения:    

Текущее время: 09-Дек 16:27

Часовой пояс: UTC + 3


Вы не можете начинать темы
Вы не можете отвечать на сообщения
Вы не можете редактировать свои сообщения
Вы не можете удалять свои сообщения
Вы не можете голосовать в опросах
Вы не можете прикреплять файлы к сообщениям
Вы не можете скачивать файлы

!ВНИМАНИЕ!
Сайт не предоставляет электронные версии произведений, а занимается лишь коллекционированием и каталогизацией ссылок, присылаемых и публикуемых на форуме нашими читателями. Если вы являетесь правообладателем какого-либо представленного материала и не желаете, чтобы ссылка на него находилась в нашем каталоге, свяжитесь с нами, и мы незамедлительно удалим ее. Файлы для обмена на трекере предоставлены пользователями сайта, и администрация не несет ответственности за их содержание. Просьба не заливать файлы, защищенные авторскими правами, а также файлы нелегального содержания!